  0
SECTION
  2
HEADER
  9
$LIMMIN
 10
0.000000
 20
0.000000
  9
$LIMMAX
 10
62.054091
 20
47.074391
  9
$EXTMIN
 10
0.000000
 20
0.000000
  9
$EXTMAX
 10
62.054091
 20
47.074391
  9
$ANGBASE
 50
0.000000
  9
$ANGDIR
 70
0
  9
$INSUNITS
 70
1
  9
$DIMALT
 70
1
  9
$DIMLUNIT
 70
5
  9
$DIMASZ
 40
0.125000
  9
$DIMTXT
 40
0.200000
  9
$DIMRND
 40
0.125000
  9
$DIMEXE
 40
0.083333
  9
$DIMEXO
 40
0.083333
  9
$DIMAUNIT
 70
0
  9
$DIMADEC
 70
2
  9
$GRIDUNIT
 10
0.000977
 20
0.000977
  9
$PLIMMIN
 10
0.000000
 20
0.000000
  9
$PLIMMAX
 10
11.000000
 20
8.500000
  9
$PSVPSCALE
 40
0.170000
  0
ENDSEC
  0
SECTION
  2
TABLES
  0
TABLE
  2
LTYPE
 70
     1
  0
LTYPE
  2
CONTINUOUS
 70
    64
  3
Ausgez
 72
    65
 73
  0
 40
0.000000
  0
ENDTAB
  0
TABLE
  2
LAYER
 70
     1
  0
LAYER
  2
default
 70
    64
 62
0
  6
CONTINUOUS
  0
LAYER
  2
labels
 70
    64
 62
0
  6
CONTINUOUS
  0
ENDTAB
  0
ENDSEC
  0
SECTION
  2
BLOCKS
  0
ENDSEC
  0
SECTION
  2
ENTITIES
  0
LINE
  8
default
  6
CONTINUOUS
 10
54.102432
 20
13.682693
 11
54.156165
 21
13.691896
 39
0
 62
0
  0
LINE
  8
default
  6
CONTINUOUS
 10
54.146962
 20
13.638163
 11
54.156165
 21
13.691896
 39
0
 62
0
  0
LINE
  8
default
  6
CONTINUOUS
 10
54.146962
 20
13.638163
 11
54.276656
 21
13.508470
 39
0
 62
0
  0
LINE
  8
default
  6
CONTINUOUS
 10
53.960610
 20
13.540872
 11
53.951407
 21
13.487138
 39
0
 62
0
  0
LINE
  8
default
  6
CONTINUOUS
 10
54.005140
 20
13.496341
 11
53.951407
 21
13.487138
 39
0
 62
0
  0
LINE
  8
default
  6
CONTINUOUS
 10
54.005140
 20
13.496341
 11
54.134834
 21
13.366648
 39
0
 62
0
  0
LINE
  8
default
  6
CONTINUOUS
 10
54.134834
 20
13.366648
 11
54.276656
 21
13.508470
 39
0
 62
0
  0
LINE
  8
default
  6
CONTINUOUS
 10
53.689890
 20
14.306967
 11
53.638666
 21
14.255744
 39
0
 62
0
  0
LINE
  8
default
  6
CONTINUOUS
 10
53.978025
 20
13.916385
 11
53.966642
 21
13.818483
 39
0
 62
0
  0
LINE
  8
default
  6
CONTINUOUS
 10
53.978025
 20
13.916385
 11
53.638666
 21
14.255744
 39
0
 62
0
  0
LINE
  8
default
  6
CONTINUOUS
 10
54.102432
 20
13.682693
 11
53.966642
 21
13.818483
 39
0
 62
0
  0
LINE
  8
default
  6
CONTINUOUS
 10
53.336336
 20
13.953414
 11
53.387560
 21
14.004637
 39
0
 62
0
  0
LINE
  8
default
  6
CONTINUOUS
 10
53.726918
 20
13.665278
 11
53.824820
 21
13.676661
 39
0
 62
0
  0
LINE
  8
default
  6
CONTINUOUS
 10
53.726918
 20
13.665278
 11
53.387560
 21
14.004637
 39
0
 62
0
  0
LINE
  8
default
  6
CONTINUOUS
 10
53.960610
 20
13.540872
 11
53.824820
 21
13.676661
 39
0
 62
0
  0
LINE
  8
default
  6
CONTINUOUS
 10
51.112153
 20
15.470491
 11
52.703143
 21
13.879500
 39
0
 62
0
  0
LINE
  8
default
  6
CONTINUOUS
 10
51.112153
 20
15.470491
 11
51.565996
 21
15.924334
 39
0
 62
0
  0
LINE
  8
default
  6
CONTINUOUS
 10
52.703143
 20
13.879500
 11
53.461351
 21
14.637709
 39
0
 62
0
  0
LINE
  8
default
  6
CONTINUOUS
 10
52.398698
 20
15.944792
 11
52.523409
 21
15.967824
 39
0
 62
0
  0
LINE
  8
default
  6
CONTINUOUS
 10
52.523409
 20
15.967824
 11
52.619784
 21
15.967824
 39
0
 62
0
  0
LINE
  8
default
  6
CONTINUOUS
 10
52.619784
 20
15.967824
 11
52.697625
 21
15.952997
 39
0
 62
0
  0
LINE
  8
default
  6
CONTINUOUS
 10
52.697625
 20
15.952997
 11
52.768053
 21
15.923343
 39
0
 62
0
  0
LINE
  8
default
  6
CONTINUOUS
 10
52.768053
 20
15.923343
 11
52.863298
 21
15.840665
 39
0
 62
0
  0
LINE
  8
default
  6
CONTINUOUS
 10
53.170956
 20
15.533007
 11
53.222043
 21
15.467488
 39
0
 62
0
  0
LINE
  8
default
  6
CONTINUOUS
 10
53.222043
 20
15.467488
 11
53.248397
 21
15.420329
 39
0
 62
0
  0
LINE
  8
default
  6
CONTINUOUS
 10
53.248397
 20
15.420329
 11
53.266428
 21
15.374557
 39
0
 62
0
  0
LINE
  8
default
  6
CONTINUOUS
 10
53.266428
 20
15.374557
 11
53.267815
 21
15.313527
 39
0
 62
0
  0
LINE
  8
default
  6
CONTINUOUS
 10
53.267815
 20
15.313527
 11
53.267815
 21
15.259433
 39
0
 62
0
  0
LINE
  8
default
  6
CONTINUOUS
 10
53.267815
 20
15.259433
 11
53.265225
 21
15.141888
 39
0
 62
0
  0
ARC
  8
default
  6
CONTINUOUS
 10
53.946500
 20
15.116668
 40
0.681741
 50
174.572361
 51
224.632135
 39
0
 62
0
  0
ARC
  8
default
  6
CONTINUOUS
 10
51.948198
 20
17.324518
 40
1.451411
 50
254.732181
 51
288.082574
 39
0
 62
0
  0
LINE
  8
default
  6
CONTINUOUS
 10
52.863298
 20
15.840665
 11
53.170956
 21
15.533007
 39
0
 62
0
  0
LINE
  8
default
  6
CONTINUOUS
 10
51.720698
 20
14.685169
 11
52.074251
 21
14.331615
 39
0
 62
0
  0
LINE
  8
default
  6
CONTINUOUS
 10
51.809086
 20
14.773557
 11
51.720698
 21
14.685169
 39
0
 62
0
  0
LINE
  8
default
  6
CONTINUOUS
 10
52.162640
 20
14.420003
 11
52.074251
 21
14.331615
 39
0
 62
0
  0
LINE
  8
default
  6
CONTINUOUS
 10
52.003541
 20
14.402326
 11
51.915152
 21
14.313937
 39
0
 62
0
  0
LINE
  8
default
  6
CONTINUOUS
 10
51.703020
 20
14.526070
 11
51.915152
 21
14.313937
 39
0
 62
0
  0
LINE
  8
default
  6
CONTINUOUS
 10
51.791409
 20
14.614458
 11
51.703020
 21
14.526070
 39
0
 62
0
  0
LINE
  8
default
  6
CONTINUOUS
 10
51.773731
 20
14.455359
 11
51.596954
 21
14.278582
 39
0
 62
0
  0
LINE
  8
default
  6
CONTINUOUS
 10
51.596954
 20
14.278582
 11
51.667665
 21
14.207871
 39
0
 62
0
  0
LINE
  8
default
  6
CONTINUOUS
 10
51.844442
 20
14.384648
 11
51.667665
 21
14.207871
 39
0
 62
0
  0
LINE
  8
default
  6
CONTINUOUS
 10
52.387749
 20
14.021582
 11
49.751887
 21
14.207514
 39
0
 62
0
  0
LINE
  8
default
  6
CONTINUOUS
 10
52.770550
 20
14.524693
 11
52.901797
 21
14.404384
 39
0
 62
0
  0
LINE
  8
default
  6
CONTINUOUS
 10
52.167368
 20
14.162438
 11
49.760682
 21
14.332204
 39
0
 62
0
  0
LINE
  8
default
  6
CONTINUOUS
 10
52.167368
 20
14.162438
 11
52.770550
 21
14.524693
 39
0
 62
0
  0
LINE
  8
default
  6
CONTINUOUS
 10
52.728669
 20
14.059462
 11
52.387749
 21
14.021582
 39
0
 62
0
  0
LINE
  8
default
  6
CONTINUOUS
 10
52.901797
 20
14.404384
 11
52.728669
 21
14.059462
 39
0
 62
0
  0
CIRCLE
  8
default
  6
CONTINUOUS
 10
52.743878
 20
14.364869
 40
0.100000
 39
0
 62
0
  0
LINE
  8
default
  6
CONTINUOUS
 10
49.751887
 20
14.207514
 11
49.760682
 21
14.332204
 39
0
 62
0
  0
LINE
  8
default
  6
CONTINUOUS
 10
53.056696
 20
14.233054
 11
53.336336
 21
13.953414
 39
0
 62
0
  0
LINE
  8
default
  6
CONTINUOUS
 10
53.410250
 20
14.586607
 11
53.689890
 21
14.306967
 39
0
 62
0
  0
LINE
  8
default
  6
CONTINUOUS
 10
49.242278
 20
18.123762
 11
48.678231
 21
18.381612
 39
0
 62
0
  0
LINE
  8
default
  6
CONTINUOUS
 10
48.678231
 20
18.381612
 11
47.759641
 21
18.720040
 39
0
 62
0
  0
LINE
  8
default
  6
CONTINUOUS
 10
47.759641
 20
18.720040
 11
46.599317
 21
18.844504
 39
0
 62
0
  0
LINE
  8
default
  6
CONTINUOUS
 10
49.628212
 20
17.841733
 11
49.242278
 21
18.123762
 39
0
 62
0
  0
LINE
  8
default
  6
CONTINUOUS
 10
48.868627
 20
17.623762
 11
48.304580
 21
17.881612
 39
0
 62
0
  0
LINE
  8
default
  6
CONTINUOUS
 10
48.304580
 20
17.881612
 11
47.385990
 21
18.220040
 39
0
 62
0
  0
LINE
  8
default
  6
CONTINUOUS
 10
49.254561
 20
17.341733
 11
48.868627
 21
17.623762
 39
0
 62
0
  0
LINE
  8
default
  6
CONTINUOUS
 10
50.458801
 20
16.929897
 11
51.515180
 21
15.873518
 39
0
 62
0
  0
LINE
  8
default
  6
CONTINUOUS
 10
50.105247
 20
16.576343
 11
51.161626
 21
15.519964
 39
0
 62
0
  0
LINE
  8
default
  6
DOT
 10
49.838254
 20
17.550444
 11
49.484700
 21
17.196890
 39
0
 62
0
  0
LINE
  8
default
  6
DOT
 10
49.838254
 20
17.550444
 11
50.458801
 21
16.929897
 39
0
 62
0
  0
LINE
  8
default
  6
DOT
 10
49.484700
 20
17.196890
 11
50.105247
 21
16.576343
 39
0
 62
0
  0
LINE
  8
default
  6
CONTINUOUS
 10
50.499425
 20
16.970521
 11
49.628212
 21
17.841733
 39
0
 62
0
  0
LINE
  8
default
  6
CONTINUOUS
 10
50.062599
 20
16.533696
 11
49.254561
 21
17.341733
 39
0
 62
0
  0
LINE
  8
default
  6
CONTINUOUS
 10
50.499425
 20
16.970521
 11
50.062599
 21
16.533696
 39
0
 62
0
  0
LINE
  8
default
  6
CONTINUOUS
 10
47.385990
 20
18.220040
 11
46.225666
 21
18.344504
 39
0
 62
0
  0
LINE
  8
default
  6
CONTINUOUS
 10
50.203240
 20
17.597946
 11
50.516796
 21
17.284390
 39
0
 62
0
  0
LINE
  8
default
  6
CONTINUOUS
 10
50.203240
 20
17.597946
 11
50.069361
 21
17.464067
 39
0
 62
0
  0
LINE
  8
default
  6
CONTINUOUS
 10
50.069361
 20
17.464067
 11
50.382917
 21
17.150511
 39
0
 62
0
  0
LINE
  8
default
  6
CONTINUOUS
 10
50.516796
 20
17.284390
 11
50.382917
 21
17.150511
 39
0
 62
0
  0
LINE
  8
default
  6
CONTINUOUS
 10
50.118227
 20
17.415201
 11
49.620140
 21
16.917114
 39
0
 62
0
  0
LINE
  8
default
  6
CONTINUOUS
 10
49.835964
 20
16.701289
 11
49.620140
 21
16.917114
 39
0
 62
0
  0
LINE
  8
default
  6
CONTINUOUS
 10
50.334051
 20
17.199377
 11
49.835964
 21
16.701289
 39
0
 62
0
  0
TEXT
  8
default
  6
CONTINUOUS
 10
38.664911
 20
20.949124
 40
1.500000
 50
0.000000
 72
0
  7
Normal#0.150000#0.900000
  1
InteriorView
 39
0
 62
0
  0
LINE
  8
default
  6
CONTINUOUS
 10
30.972114
 20
18.694504
 11
30.972114
 21
18.494504
 39
0
 62
0
  0
LINE
  8
default
  6
CONTINUOUS
 10
31.072114
 20
18.694504
 11
31.072114
 21
18.494504
 39
0
 62
0
  0
LINE
  8
default
  6
CONTINUOUS
 10
31.172114
 20
18.694504
 11
31.172114
 21
18.494504
 39
0
 62
0
  0
LINE
  8
default
  6
CONTINUOUS
 10
31.272114
 20
18.694504
 11
31.272114
 21
18.494504
 39
0
 62
0
  0
LINE
  8
default
  6
CONTINUOUS
 10
31.372114
 20
18.694504
 11
31.372114
 21
18.494504
 39
0
 62
0
  0
LINE
  8
default
  6
CONTINUOUS
 10
31.472114
 20
18.694504
 11
31.472114
 21
18.494504
 39
0
 62
0
  0
LINE
  8
default
  6
CONTINUOUS
 10
31.572114
 20
18.694504
 11
31.572114
 21
18.494504
 39
0
 62
0
  0
LINE
  8
default
  6
CONTINUOUS
 10
31.672114
 20
18.694504
 11
31.672114
 21
18.494504
 39
0
 62
0
  0
LINE
  8
default
  6
CONTINUOUS
 10
31.772114
 20
18.694504
 11
31.772114
 21
18.494504
 39
0
 62
0
  0
LINE
  8
default
  6
CONTINUOUS
 10
30.872114
 20
18.675296
 11
30.972114
 21
18.694504
 39
0
 62
0
  0
LINE
  8
default
  6
CONTINUOUS
 10
30.972114
 20
18.675296
 11
31.072114
 21
18.694504
 39
0
 62
0
  0
LINE
  8
default
  6
CONTINUOUS
 10
31.072114
 20
18.675296
 11
31.172114
 21
18.694504
 39
0
 62
0
  0
LINE
  8
default
  6
CONTINUOUS
 10
31.172114
 20
18.675296
 11
31.272114
 21
18.694504
 39
0
 62
0
  0
LINE
  8
default
  6
CONTINUOUS
 10
31.272114
 20
18.675296
 11
31.372114
 21
18.694504
 39
0
 62
0
  0
LINE
  8
default
  6
CONTINUOUS
 10
31.372114
 20
18.675296
 11
31.472114
 21
18.694504
 39
0
 62
0
  0
LINE
  8
default
  6
CONTINUOUS
 10
31.472114
 20
18.675296
 11
31.572114
 21
18.694504
 39
0
 62
0
  0
LINE
  8
default
  6
CONTINUOUS
 10
31.572114
 20
18.675296
 11
31.672114
 21
18.694504
 39
0
 62
0
  0
LINE
  8
default
  6
CONTINUOUS
 10
31.672114
 20
18.675296
 11
31.772114
 21
18.694504
 39
0
 62
0
  0
LINE
  8
default
  6
CONTINUOUS
 10
31.772114
 20
18.675296
 11
31.872114
 21
18.694504
 39
0
 62
0
  0
LINE
  8
default
  6
CONTINUOUS
 10
30.872114
 20
18.513712
 11
30.972114
 21
18.494504
 39
0
 62
0
  0
LINE
  8
default
  6
CONTINUOUS
 10
30.972114
 20
18.513712
 11
31.072114
 21
18.494504
 39
0
 62
0
  0
LINE
  8
default
  6
CONTINUOUS
 10
31.072114
 20
18.513712
 11
31.172114
 21
18.494504
 39
0
 62
0
  0
LINE
  8
default
  6
CONTINUOUS
 10
31.172114
 20
18.513712
 11
31.272114
 21
18.494504
 39
0
 62
0
  0
LINE
  8
default
  6
CONTINUOUS
 10
31.272114
 20
18.513712
 11
31.372114
 21
18.494504
 39
0
 62
0
  0
LINE
  8
default
  6
CONTINUOUS
 10
31.372114
 20
18.513712
 11
31.472114
 21
18.494504
 39
0
 62
0
  0
LINE
  8
default
  6
CONTINUOUS
 10
31.472114
 20
18.513712
 11
31.572114
 21
18.494504
 39
0
 62
0
  0
LINE
  8
default
  6
CONTINUOUS
 10
31.572114
 20
18.513712
 11
31.672114
 21
18.494504
 39
0
 62
0
  0
LINE
  8
default
  6
CONTINUOUS
 10
31.672114
 20
18.513712
 11
31.772114
 21
18.494504
 39
0
 62
0
  0
LINE
  8
default
  6
CONTINUOUS
 10
31.772114
 20
18.513712
 11
31.872114
 21
18.494504
 39
0
 62
0
  0
LINE
  8
default
  6
CONTINUOUS
 10
31.872114
 20
18.844504
 11
32.372114
 21
18.844504
 39
0
 62
0
  0
LINE
  8
default
  6
CONTINUOUS
 10
31.872114
 20
18.344504
 11
32.372114
 21
18.344504
 39
0
 62
0
  0
LINE
  8
default
  6
CONTINUOUS
 10
31.872114
 20
18.844504
 11
31.872114
 21
18.344504
 39
0
 62
0
  0
LINE
  8
default
  6
CONTINUOUS
 10
32.497853
 20
19.594504
 11
32.497853
 21
17.594504
 39
0
 62
0
  0
LINE
  8
default
  6
CONTINUOUS
 10
32.406406
 20
17.594504
 11
32.497853
 21
17.594504
 39
0
 62
0
  0
LINE
  8
default
  6
CONTINUOUS
 10
32.406406
 20
19.594504
 11
32.497853
 21
19.594504
 39
0
 62
0
  0
LINE
  8
default
  6
CONTINUOUS
 10
32.497853
 20
18.794504
 11
32.657853
 21
18.794504
 39
0
 62
0
  0
LINE
  8
default
  6
CONTINUOUS
 10
32.497853
 20
18.394504
 11
32.657853
 21
18.394504
 39
0
 62
0
  0
LINE
  8
default
  6
CONTINUOUS
 10
33.257853
 20
18.694504
 11
33.257853
 21
18.494504
 39
0
 62
0
  0
LINE
  8
default
  6
CONTINUOUS
 10
33.257853
 20
18.675296
 11
33.157853
 21
18.694504
 39
0
 62
0
  0
LINE
  8
default
  6
CONTINUOUS
 10
33.257853
 20
18.513712
 11
33.157853
 21
18.494504
 39
0
 62
0
  0
LINE
  8
default
  6
CONTINUOUS
 10
33.157853
 20
18.844504
 11
32.657853
 21
18.844504
 39
0
 62
0
  0
LINE
  8
default
  6
CONTINUOUS
 10
33.157853
 20
18.344504
 11
32.657853
 21
18.344504
 39
0
 62
0
  0
LINE
  8
default
  6
CONTINUOUS
 10
33.157853
 20
18.844504
 11
33.157853
 21
18.344504
 39
0
 62
0
  0
LINE
  8
default
  6
CONTINUOUS
 10
32.657853
 20
18.844504
 11
32.657853
 21
18.344504
 39
0
 62
0
  0
LINE
  8
default
  6
DOT
 10
32.657853
 20
18.434504
 11
33.036878
 21
18.434504
 39
0
 62
0
  0
LINE
  8
default
  6
DOT
 10
32.657853
 20
18.754504
 11
33.036878
 21
18.754504
 39
0
 62
0
  0
LINE
  8
default
  6
DOT
 10
33.036878
 20
18.754504
 11
33.036878
 21
18.434504
 39
0
 62
0
  0
LINE
  8
default
  6
DOT
 10
32.118827
 20
18.754504
 11
32.497853
 21
18.754504
 39
0
 62
0
  0
LINE
  8
default
  6
DOT
 10
32.118827
 20
18.434504
 11
32.497853
 21
18.434504
 39
0
 62
0
  0
LINE
  8
default
  6
DOT
 10
32.118827
 20
18.754504
 11
32.118827
 21
18.434504
 39
0
 62
0
  0
ARC
  8
default
  6
CONTINUOUS
 10
32.316778
 20
19.379429
 40
0.208368
 50
330.344537
 51
29.655463
 39
0
 62
0
  0
LINE
  8
default
  6
CONTINUOUS
 10
32.266561
 20
19.404429
 11
32.266561
 21
19.354429
 39
0
 62
0
  0
LINE
  8
default
  6
CONTINUOUS
 10
32.266561
 20
19.404429
 11
32.372114
 21
19.404429
 39
0
 62
0
  0
LINE
  8
default
  6
CONTINUOUS
 10
32.266561
 20
19.354429
 11
32.372114
 21
19.354429
 39
0
 62
0
  0
LINE
  8
default
  6
DOT
 10
32.372114
 20
19.404429
 11
32.497853
 21
19.404429
 39
0
 62
0
  0
LINE
  8
default
  6
DOT
 10
32.372114
 20
19.354429
 11
32.497853
 21
19.354429
 39
0
 62
0
  0
ARC
  8
default
  6
CONTINUOUS
 10
32.316778
 20
17.809579
 40
0.208368
 50
330.344537
 51
29.655463
 39
0
 62
0
  0
LINE
  8
default
  6
CONTINUOUS
 10
32.266561
 20
17.784579
 11
32.266561
 21
17.834579
 39
0
 62
0
  0
LINE
  8
default
  6
CONTINUOUS
 10
32.266561
 20
17.784579
 11
32.372114
 21
17.784579
 39
0
 62
0
  0
LINE
  8
default
  6
CONTINUOUS
 10
32.266561
 20
17.834579
 11
32.372114
 21
17.834579
 39
0
 62
0
  0
LINE
  8
default
  6
DOT
 10
32.372114
 20
17.784579
 11
32.497853
 21
17.784579
 39
0
 62
0
  0
LINE
  8
default
  6
DOT
 10
32.372114
 20
17.834579
 11
32.497853
 21
17.834579
 39
0
 62
0
  0
LINE
  8
default
  6
CONTINUOUS
 10
33.319946
 20
18.682577
 11
33.257853
 21
18.694504
 39
0
 62
0
  0
LINE
  8
default
  6
CONTINUOUS
 10
33.319946
 20
18.506431
 11
33.257853
 21
18.494504
 39
0
 62
0
  0
LINE
  8
default
  6
DOT
 10
34.057853
 20
18.694504
 11
34.057853
 21
18.494504
 39
0
 62
0
  0
LINE
  8
default
  6
DOT
 10
33.957853
 20
18.694504
 11
33.957853
 21
18.494504
 39
0
 62
0
  0
LINE
  8
default
  6
DOT
 10
33.857853
 20
18.694504
 11
33.857853
 21
18.494504
 39
0
 62
0
  0
LINE
  8
default
  6
DOT
 10
33.757853
 20
18.694504
 11
33.757853
 21
18.494504
 39
0
 62
0
  0
LINE
  8
default
  6
DOT
 10
33.657853
 20
18.694504
 11
33.657853
 21
18.494504
 39
0
 62
0
  0
LINE
  8
default
  6
DOT
 10
33.557853
 20
18.694504
 11
33.557853
 21
18.494504
 39
0
 62
0
  0
LINE
  8
default
  6
DOT
 10
33.457853
 20
18.694504
 11
33.457853
 21
18.494504
 39
0
 62
0
  0
LINE
  8
default
  6
DOT
 10
33.357853
 20
18.694504
 11
33.357853
 21
18.494504
 39
0
 62
0
  0
LINE
  8
default
  6
DOT
 10
34.157853
 20
18.675296
 11
34.057853
 21
18.694504
 39
0
 62
0
  0
LINE
  8
default
  6
DOT
 10
34.057853
 20
18.675296
 11
33.957853
 21
18.694504
 39
0
 62
0
  0
LINE
  8
default
  6
DOT
 10
33.957853
 20
18.675296
 11
33.857853
 21
18.694504
 39
0
 62
0
  0
LINE
  8
default
  6
DOT
 10
33.857853
 20
18.675296
 11
33.757853
 21
18.694504
 39
0
 62
0
  0
LINE
  8
default
  6
DOT
 10
33.757853
 20
18.675296
 11
33.657853
 21
18.694504
 39
0
 62
0
  0
LINE
  8
default
  6
DOT
 10
33.657853
 20
18.675296
 11
33.557853
 21
18.694504
 39
0
 62
0
  0
LINE
  8
default
  6
DOT
 10
33.557853
 20
18.675296
 11
33.457853
 21
18.694504
 39
0
 62
0
  0
LINE
  8
default
  6
DOT
 10
33.457853
 20
18.675296
 11
33.357853
 21
18.694504
 39
0
 62
0
  0
LINE
  8
default
  6
DOT
 10
34.157853
 20
18.513712
 11
34.057853
 21
18.494504
 39
0
 62
0
  0
LINE
  8
default
  6
DOT
 10
34.057853
 20
18.513712
 11
33.957853
 21
18.494504
 39
0
 62
0
  0
LINE
  8
default
  6
DOT
 10
33.957853
 20
18.513712
 11
33.857853
 21
18.494504
 39
0
 62
0
  0
LINE
  8
default
  6
DOT
 10
33.857853
 20
18.513712
 11
33.757853
 21
18.494504
 39
0
 62
0
  0
LINE
  8
default
  6
DOT
 10
33.757853
 20
18.513712
 11
33.657853
 21
18.494504
 39
0
 62
0
  0
LINE
  8
default
  6
DOT
 10
33.657853
 20
18.513712
 11
33.557853
 21
18.494504
 39
0
 62
0
  0
LINE
  8
default
  6
DOT
 10
33.557853
 20
18.513712
 11
33.457853
 21
18.494504
 39
0
 62
0
  0
LINE
  8
default
  6
DOT
 10
33.457853
 20
18.513712
 11
33.357853
 21
18.494504
 39
0
 62
0
  0
LINE
  8
default
  6
DOT
 10
34.157853
 20
18.675296
 11
34.157853
 21
18.513712
 39
0
 62
0
  0
LINE
  8
default
  6
DOT
 10
33.357853
 20
18.675296
 11
33.319946
 21
18.682577
 39
0
 62
0
  0
LINE
  8
default
  6
DOT
 10
33.357853
 20
18.513712
 11
33.319946
 21
18.506431
 39
0
 62
0
  0
LINE
  8
default
  6
CONTINUOUS
 10
33.319946
 20
18.844504
 11
33.319946
 21
18.344504
 39
0
 62
0
  0
LINE
  8
default
  6
CONTINUOUS
 10
32.406406
 20
21.567879
 11
32.406406
 21
17.474440
 39
0
 62
0
  0
LINE
  8
default
  6
CONTINUOUS
 10
32.906406
 20
17.440147
 11
32.372114
 21
17.440147
 39
0
 62
0
  0
LINE
  8
default
  6
CONTINUOUS
 10
32.906406
 20
17.474440
 11
32.906406
 21
17.440147
 39
0
 62
0
  0
LINE
  8
default
  6
CONTINUOUS
 10
32.906406
 20
17.474440
 11
32.406406
 21
17.474440
 39
0
 62
0
  0
LINE
  8
default
  6
CONTINUOUS
 10
33.653024
 20
19.054749
 11
34.096458
 21
19.054749
 39
0
 62
0
  0
LINE
  8
default
  6
CONTINUOUS
 10
33.653024
 20
19.054749
 11
33.653024
 21
18.865416
 39
0
 62
0
  0
LINE
  8
default
  6
CONTINUOUS
 10
33.653024
 20
18.865416
 11
34.096458
 21
18.865416
 39
0
 62
0
  0
LINE
  8
default
  6
CONTINUOUS
 10
34.096458
 20
19.054749
 11
34.096458
 21
18.865416
 39
0
 62
0
  0
LINE
  8
default
  6
CONTINUOUS
 10
33.722130
 20
18.865416
 11
33.722130
 21
18.321910
 39
0
 62
0
  0
LINE
  8
default
  6
CONTINUOUS
 10
34.027352
 20
18.865416
 11
34.027352
 21
18.321910
 39
0
 62
0
  0
LINE
  8
default
  6
CONTINUOUS
 10
33.722130
 20
18.321910
 11
34.027352
 21
18.321910
 39
0
 62
0
  0
LINE
  8
default
  6
CONTINUOUS
 10
33.319946
 20
18.844504
 11
46.599317
 21
18.844504
 39
0
 62
0
  0
LINE
  8
default
  6
CONTINUOUS
 10
33.319946
 20
18.344504
 11
46.225666
 21
18.344504
 39
0
 62
0
  0
LINE
  8
default
  6
CONTINUOUS
 10
30.472114
 20
18.694504
 11
30.472114
 21
18.494504
 39
0
 62
0
  0
LINE
  8
default
  6
CONTINUOUS
 10
30.572114
 20
18.694504
 11
30.572114
 21
18.494504
 39
0
 62
0
  0
LINE
  8
default
  6
CONTINUOUS
 10
30.672114
 20
18.694504
 11
30.672114
 21
18.494504
 39
0
 62
0
  0
LINE
  8
default
  6
CONTINUOUS
 10
30.772114
 20
18.694504
 11
30.772114
 21
18.494504
 39
0
 62
0
  0
LINE
  8
default
  6
CONTINUOUS
 10
30.372114
 20
18.675296
 11
30.472114
 21
18.694504
 39
0
 62
0
  0
LINE
  8
default
  6
CONTINUOUS
 10
30.472114
 20
18.675296
 11
30.572114
 21
18.694504
 39
0
 62
0
  0
LINE
  8
default
  6
CONTINUOUS
 10
30.572114
 20
18.675296
 11
30.672114
 21
18.694504
 39
0
 62
0
  0
LINE
  8
default
  6
CONTINUOUS
 10
30.672114
 20
18.675296
 11
30.772114
 21
18.694504
 39
0
 62
0
  0
LINE
  8
default
  6
CONTINUOUS
 10
30.772114
 20
18.675296
 11
30.872114
 21
18.694504
 39
0
 62
0
  0
LINE
  8
default
  6
CONTINUOUS
 10
30.372114
 20
18.513712
 11
30.472114
 21
18.494504
 39
0
 62
0
  0
LINE
  8
default
  6
CONTINUOUS
 10
30.472114
 20
18.513712
 11
30.572114
 21
18.494504
 39
0
 62
0
  0
LINE
  8
default
  6
CONTINUOUS
 10
30.572114
 20
18.513712
 11
30.672114
 21
18.494504
 39
0
 62
0
  0
LINE
  8
default
  6
CONTINUOUS
 10
30.672114
 20
18.513712
 11
30.772114
 21
18.494504
 39
0
 62
0
  0
LINE
  8
default
  6
CONTINUOUS
 10
30.772114
 20
18.513712
 11
30.872114
 21
18.494504
 39
0
 62
0
  0
LINE
  8
default
  6
CONTINUOUS
 10
30.872114
 20
18.694504
 11
30.872114
 21
18.494504
 39
0
 62
0
  0
LINE
  8
default
  6
CONTINUOUS
 10
30.372114
 20
18.513712
 11
30.372114
 21
18.675296
 39
0
 62
0
  0
LINE
  8
default
  6
CONTINUOUS
 10
28.372114
 20
21.567879
 11
28.372114
 21
17.440147
 39
0
 62
0
  0
LINE
  8
default
  6
CONTINUOUS
 10
28.372114
 20
17.440147
 11
32.372114
 21
17.440147
 39
0
 62
0
  0
LINE
  8
default
  6
CONTINUOUS
 10
32.372114
 20
21.567879
 11
32.372114
 21
17.440147
 39
0
 62
0
  0
LINE
  8
default
  6
CONTINUOUS
 10
29.629273
 20
6.768665
 11
29.629273
 21
6.568665
 39
0
 62
0
  0
LINE
  8
default
  6
CONTINUOUS
 10
29.729273
 20
6.768665
 11
29.729273
 21
6.568665
 39
0
 62
0
  0
LINE
  8
default
  6
CONTINUOUS
 10
29.829273
 20
6.768665
 11
29.829273
 21
6.568665
 39
0
 62
0
  0
LINE
  8
default
  6
CONTINUOUS
 10
29.929273
 20
6.768665
 11
29.929273
 21
6.568665
 39
0
 62
0
  0
LINE
  8
default
  6
CONTINUOUS
 10
30.029273
 20
6.768665
 11
30.029273
 21
6.568665
 39
0
 62
0
  0
LINE
  8
default
  6
CONTINUOUS
 10
30.129273
 20
6.768665
 11
30.129273
 21
6.568665
 39
0
 62
0
  0
LINE
  8
default
  6
CONTINUOUS
 10
30.229273
 20
6.768665
 11
30.229273
 21
6.568665
 39
0
 62
0
  0
LINE
  8
default
  6
CONTINUOUS
 10
30.329273
 20
6.768665
 11
30.329273
 21
6.568665
 39
0
 62
0
  0
LINE
  8
default
  6
CONTINUOUS
 10
30.429273
 20
6.768665
 11
30.429273
 21
6.568665
 39
0
 62
0
  0
LINE
  8
default
  6
CONTINUOUS
 10
29.529273
 20
6.749457
 11
29.629273
 21
6.768665
 39
0
 62
0
  0
LINE
  8
default
  6
CONTINUOUS
 10
29.629273
 20
6.749457
 11
29.729273
 21
6.768665
 39
0
 62
0
  0
LINE
  8
default
  6
CONTINUOUS
 10
29.729273
 20
6.749457
 11
29.829273
 21
6.768665
 39
0
 62
0
  0
LINE
  8
default
  6
CONTINUOUS
 10
29.829273
 20
6.749457
 11
29.929273
 21
6.768665
 39
0
 62
0
  0
LINE
  8
default
  6
CONTINUOUS
 10
29.929273
 20
6.749457
 11
30.029273
 21
6.768665
 39
0
 62
0
  0
LINE
  8
default
  6
CONTINUOUS
 10
30.029273
 20
6.749457
 11
30.129273
 21
6.768665
 39
0
 62
0
  0
LINE
  8
default
  6
CONTINUOUS
 10
30.129273
 20
6.749457
 11
30.229273
 21
6.768665
 39
0
 62
0
  0
LINE
  8
default
  6
CONTINUOUS
 10
30.229273
 20
6.749457
 11
30.329273
 21
6.768665
 39
0
 62
0
  0
LINE
  8
default
  6
CONTINUOUS
 10
30.329273
 20
6.749457
 11
30.429273
 21
6.768665
 39
0
 62
0
  0
LINE
  8
default
  6
CONTINUOUS
 10
30.429273
 20
6.749457
 11
30.529273
 21
6.768665
 39
0
 62
0
  0
LINE
  8
default
  6
CONTINUOUS
 10
29.529273
 20
6.587873
 11
29.629273
 21
6.568665
 39
0
 62
0
  0
LINE
  8
default
  6
CONTINUOUS
 10
29.629273
 20
6.587873
 11
29.729273
 21
6.568665
 39
0
 62
0
  0
LINE
  8
default
  6
CONTINUOUS
 10
29.729273
 20
6.587873
 11
29.829273
 21
6.568665
 39
0
 62
0
  0
LINE
  8
default
  6
CONTINUOUS
 10
29.829273
 20
6.587873
 11
29.929273
 21
6.568665
 39
0
 62
0
  0
LINE
  8
default
  6
CONTINUOUS
 10
29.929273
 20
6.587873
 11
30.029273
 21
6.568665
 39
0
 62
0
  0
LINE
  8
default
  6
CONTINUOUS
 10
30.029273
 20
6.587873
 11
30.129273
 21
6.568665
 39
0
 62
0
  0
LINE
  8
default
  6
CONTINUOUS
 10
30.129273
 20
6.587873
 11
30.229273
 21
6.568665
 39
0
 62
0
  0
LINE
  8
default
  6
CONTINUOUS
 10
30.229273
 20
6.587873
 11
30.329273
 21
6.568665
 39
0
 62
0
  0
LINE
  8
default
  6
CONTINUOUS
 10
30.329273
 20
6.587873
 11
30.429273
 21
6.568665
 39
0
 62
0
  0
LINE
  8
default
  6
CONTINUOUS
 10
30.429273
 20
6.587873
 11
30.529273
 21
6.568665
 39
0
 62
0
  0
LINE
  8
default
  6
CONTINUOUS
 10
30.529273
 20
6.918665
 11
31.029273
 21
6.918665
 39
0
 62
0
  0
LINE
  8
default
  6
CONTINUOUS
 10
30.529273
 20
6.418665
 11
31.029273
 21
6.418665
 39
0
 62
0
  0
LINE
  8
default
  6
CONTINUOUS
 10
30.529273
 20
6.918665
 11
30.529273
 21
6.418665
 39
0
 62
0
  0
LINE
  8
default
  6
CONTINUOUS
 10
29.129273
 20
6.768665
 11
29.129273
 21
6.568665
 39
0
 62
0
  0
LINE
  8
default
  6
CONTINUOUS
 10
29.229273
 20
6.768665
 11
29.229273
 21
6.568665
 39
0
 62
0
  0
LINE
  8
default
  6
CONTINUOUS
 10
29.329273
 20
6.768665
 11
29.329273
 21
6.568665
 39
0
 62
0
  0
LINE
  8
default
  6
CONTINUOUS
 10
29.429273
 20
6.768665
 11
29.429273
 21
6.568665
 39
0
 62
0
  0
LINE
  8
default
  6
CONTINUOUS
 10
29.029273
 20
6.749457
 11
29.129273
 21
6.768665
 39
0
 62
0
  0
LINE
  8
default
  6
CONTINUOUS
 10
29.129273
 20
6.749457
 11
29.229273
 21
6.768665
 39
0
 62
0
  0
LINE
  8
default
  6
CONTINUOUS
 10
29.229273
 20
6.749457
 11
29.329273
 21
6.768665
 39
0
 62
0
  0
LINE
  8
default
  6
CONTINUOUS
 10
29.329273
 20
6.749457
 11
29.429273
 21
6.768665
 39
0
 62
0
  0
LINE
  8
default
  6
CONTINUOUS
 10
29.429273
 20
6.749457
 11
29.529273
 21
6.768665
 39
0
 62
0
  0
LINE
  8
default
  6
CONTINUOUS
 10
29.029273
 20
6.587873
 11
29.129273
 21
6.568665
 39
0
 62
0
  0
LINE
  8
default
  6
CONTINUOUS
 10
29.129273
 20
6.587873
 11
29.229273
 21
6.568665
 39
0
 62
0
  0
LINE
  8
default
  6
CONTINUOUS
 10
29.229273
 20
6.587873
 11
29.329273
 21
6.568665
 39
0
 62
0
  0
LINE
  8
default
  6
CONTINUOUS
 10
29.329273
 20
6.587873
 11
29.429273
 21
6.568665
 39
0
 62
0
  0
LINE
  8
default
  6
CONTINUOUS
 10
29.429273
 20
6.587873
 11
29.529273
 21
6.568665
 39
0
 62
0
  0
LINE
  8
default
  6
CONTINUOUS
 10
29.529273
 20
6.768665
 11
29.529273
 21
6.568665
 39
0
 62
0
  0
LINE
  8
default
  6
CONTINUOUS
 10
29.029273
 20
6.587873
 11
29.029273
 21
6.749457
 39
0
 62
0
  0
LINE
  8
default
  6
CONTINUOUS
 10
31.029273
 20
6.918665
 11
31.029273
 21
6.418665
 39
0
 62
0
  0
LINE
  8
default
  6
CONTINUOUS
 10
32.116722
 20
7.668665
 11
32.116722
 21
5.668665
 39
0
 62
0
  0
LINE
  8
default
  6
CONTINUOUS
 10
32.166722
 20
7.668665
 11
32.166722
 21
5.668665
 39
0
 62
0
  0
LINE
  8
default
  6
CONTINUOUS
 10
32.116722
 20
7.668665
 11
32.166722
 21
7.668665
 39
0
 62
0
  0
LINE
  8
default
  6
CONTINUOUS
 10
32.116722
 20
5.668665
 11
32.166722
 21
5.668665
 39
0
 62
0
  0
LINE
  8
default
  6
CONTINUOUS
 10
31.462762
 20
10.732571
 11
31.462762
 21
5.668665
 39
0
 62
0
  0
LINE
  8
default
  6
CONTINUOUS
 10
31.472762
 20
10.732571
 11
31.472762
 21
5.668665
 39
0
 62
0
  0
LINE
  8
default
  6
CONTINUOUS
 10
33.222220
 20
6.868665
 11
33.382220
 21
6.868665
 39
0
 62
0
  0
LINE
  8
default
  6
CONTINUOUS
 10
33.222220
 20
6.468665
 11
33.382220
 21
6.468665
 39
0
 62
0
  0
LINE
  8
default
  6
CONTINUOUS
 10
33.382220
 20
6.508665
 11
33.761245
 21
6.508665
 39
0
 62
0
  0
LINE
  8
default
  6
CONTINUOUS
 10
33.382220
 20
6.828665
 11
33.761245
 21
6.828665
 39
0
 62
0
  0
LINE
  8
default
  6
CONTINUOUS
 10
33.761245
 20
6.828665
 11
33.761245
 21
6.508665
 39
0
 62
0
  0
LINE
  8
default
  6
CONTINUOUS
 10
32.843194
 20
6.828665
 11
33.222220
 21
6.828665
 39
0
 62
0
  0
LINE
  8
default
  6
CONTINUOUS
 10
32.843194
 20
6.508665
 11
33.222220
 21
6.508665
 39
0
 62
0
  0
LINE
  8
default
  6
CONTINUOUS
 10
32.843194
 20
6.828665
 11
32.843194
 21
6.508665
 39
0
 62
0
  0
LINE
  8
default
  6
CONTINUOUS
 10
33.222220
 20
6.868665
 11
33.222220
 21
6.468665
 39
0
 62
0
  0
LINE
  8
default
  6
CONTINUOUS
 10
33.382220
 20
6.868665
 11
33.382220
 21
6.468665
 39
0
 62
0
  0
LINE
  8
default
  6
CONTINUOUS
 10
36.282303
 20
6.768665
 11
36.282303
 21
6.568665
 39
0
 62
0
  0
LINE
  8
default
  6
CONTINUOUS
 10
36.182303
 20
6.768665
 11
36.182303
 21
6.568665
 39
0
 62
0
  0
LINE
  8
default
  6
CONTINUOUS
 10
36.082303
 20
6.768665
 11
36.082303
 21
6.568665
 39
0
 62
0
  0
LINE
  8
default
  6
CONTINUOUS
 10
35.982303
 20
6.768665
 11
35.982303
 21
6.568665
 39
0
 62
0
  0
LINE
  8
default
  6
CONTINUOUS
 10
35.882303
 20
6.768665
 11
35.882303
 21
6.568665
 39
0
 62
0
  0
LINE
  8
default
  6
CONTINUOUS
 10
35.782303
 20
6.768665
 11
35.782303
 21
6.568665
 39
0
 62
0
  0
LINE
  8
default
  6
CONTINUOUS
 10
35.682303
 20
6.768665
 11
35.682303
 21
6.568665
 39
0
 62
0
  0
LINE
  8
default
  6
CONTINUOUS
 10
35.582303
 20
6.768665
 11
35.582303
 21
6.568665
 39
0
 62
0
  0
LINE
  8
default
  6
CONTINUOUS
 10
35.482303
 20
6.768665
 11
35.482303
 21
6.568665
 39
0
 62
0
  0
LINE
  8
default
  6
CONTINUOUS
 10
36.382303
 20
6.749457
 11
36.282303
 21
6.768665
 39
0
 62
0
  0
LINE
  8
default
  6
CONTINUOUS
 10
36.282303
 20
6.749457
 11
36.182303
 21
6.768665
 39
0
 62
0
  0
LINE
  8
default
  6
CONTINUOUS
 10
36.182303
 20
6.749457
 11
36.082303
 21
6.768665
 39
0
 62
0
  0
LINE
  8
default
  6
CONTINUOUS
 10
36.082303
 20
6.749457
 11
35.982303
 21
6.768665
 39
0
 62
0
  0
LINE
  8
default
  6
CONTINUOUS
 10
35.982303
 20
6.749457
 11
35.882303
 21
6.768665
 39
0
 62
0
  0
LINE
  8
default
  6
CONTINUOUS
 10
35.882303
 20
6.749457
 11
35.782303
 21
6.768665
 39
0
 62
0
  0
LINE
  8
default
  6
CONTINUOUS
 10
35.782303
 20
6.749457
 11
35.682303
 21
6.768665
 39
0
 62
0
  0
LINE
  8
default
  6
CONTINUOUS
 10
35.682303
 20
6.749457
 11
35.582303
 21
6.768665
 39
0
 62
0
  0
LINE
  8
default
  6
CONTINUOUS
 10
35.582303
 20
6.749457
 11
35.482303
 21
6.768665
 39
0
 62
0
  0
LINE
  8
default
  6
CONTINUOUS
 10
35.482303
 20
6.749457
 11
35.382303
 21
6.768665
 39
0
 62
0
  0
LINE
  8
default
  6
CONTINUOUS
 10
36.382303
 20
6.587873
 11
36.282303
 21
6.568665
 39
0
 62
0
  0
LINE
  8
default
  6
CONTINUOUS
 10
36.282303
 20
6.587873
 11
36.182303
 21
6.568665
 39
0
 62
0
  0
LINE
  8
default
  6
CONTINUOUS
 10
36.182303
 20
6.587873
 11
36.082303
 21
6.568665
 39
0
 62
0
  0
LINE
  8
default
  6
CONTINUOUS
 10
36.082303
 20
6.587873
 11
35.982303
 21
6.568665
 39
0
 62
0
  0
LINE
  8
default
  6
CONTINUOUS
 10
35.982303
 20
6.587873
 11
35.882303
 21
6.568665
 39
0
 62
0
  0
LINE
  8
default
  6
CONTINUOUS
 10
35.882303
 20
6.587873
 11
35.782303
 21
6.568665
 39
0
 62
0
  0
LINE
  8
default
  6
CONTINUOUS
 10
35.782303
 20
6.587873
 11
35.682303
 21
6.568665
 39
0
 62
0
  0
LINE
  8
default
  6
CONTINUOUS
 10
35.682303
 20
6.587873
 11
35.582303
 21
6.568665
 39
0
 62
0
  0
LINE
  8
default
  6
CONTINUOUS
 10
35.582303
 20
6.587873
 11
35.482303
 21
6.568665
 39
0
 62
0
  0
LINE
  8
default
  6
CONTINUOUS
 10
35.482303
 20
6.587873
 11
35.382303
 21
6.568665
 39
0
 62
0
  0
LINE
  8
default
  6
CONTINUOUS
 10
35.382303
 20
6.918665
 11
34.882303
 21
6.918665
 39
0
 62
0
  0
LINE
  8
default
  6
CONTINUOUS
 10
35.382303
 20
6.418665
 11
34.882303
 21
6.418665
 39
0
 62
0
  0
LINE
  8
default
  6
CONTINUOUS
 10
35.382303
 20
6.918665
 11
35.382303
 21
6.418665
 39
0
 62
0
  0
LINE
  8
default
  6
CONTINUOUS
 10
36.782303
 20
6.768665
 11
36.782303
 21
6.568665
 39
0
 62
0
  0
LINE
  8
default
  6
CONTINUOUS
 10
36.682303
 20
6.768665
 11
36.682303
 21
6.568665
 39
0
 62
0
  0
LINE
  8
default
  6
CONTINUOUS
 10
36.582303
 20
6.768665
 11
36.582303
 21
6.568665
 39
0
 62
0
  0
LINE
  8
default
  6
CONTINUOUS
 10
36.482303
 20
6.768665
 11
36.482303
 21
6.568665
 39
0
 62
0
  0
LINE
  8
default
  6
CONTINUOUS
 10
36.882303
 20
6.749457
 11
36.782303
 21
6.768665
 39
0
 62
0
  0
LINE
  8
default
  6
CONTINUOUS
 10
36.782303
 20
6.749457
 11
36.682303
 21
6.768665
 39
0
 62
0
  0
LINE
  8
default
  6
CONTINUOUS
 10
36.682303
 20
6.749457
 11
36.582303
 21
6.768665
 39
0
 62
0
  0
LINE
  8
default
  6
CONTINUOUS
 10
36.582303
 20
6.749457
 11
36.482303
 21
6.768665
 39
0
 62
0
  0
LINE
  8
default
  6
CONTINUOUS
 10
36.482303
 20
6.749457
 11
36.382303
 21
6.768665
 39
0
 62
0
  0
LINE
  8
default
  6
CONTINUOUS
 10
36.882303
 20
6.587873
 11
36.782303
 21
6.568665
 39
0
 62
0
  0
LINE
  8
default
  6
CONTINUOUS
 10
36.782303
 20
6.587873
 11
36.682303
 21
6.568665
 39
0
 62
0
  0
LINE
  8
default
  6
CONTINUOUS
 10
36.682303
 20
6.587873
 11
36.582303
 21
6.568665
 39
0
 62
0
  0
LINE
  8
default
  6
CONTINUOUS
 10
36.582303
 20
6.587873
 11
36.482303
 21
6.568665
 39
0
 62
0
  0
LINE
  8
default
  6
CONTINUOUS
 10
36.482303
 20
6.587873
 11
36.382303
 21
6.568665
 39
0
 62
0
  0
LINE
  8
default
  6
CONTINUOUS
 10
36.382303
 20
6.768665
 11
36.382303
 21
6.568665
 39
0
 62
0
  0
LINE
  8
default
  6
CONTINUOUS
 10
36.882303
 20
6.587873
 11
36.882303
 21
6.749457
 39
0
 62
0
  0
LINE
  8
default
  6
CONTINUOUS
 10
34.882303
 20
6.918665
 11
34.882303
 21
6.418665
 39
0
 62
0
  0
LINE
  8
default
  6
CONTINUOUS
 10
39.038655
 20
6.918665
 11
44.190966
 21
6.918665
 39
0
 62
0
  0
LINE
  8
default
  6
CONTINUOUS
 10
39.038655
 20
6.418665
 11
44.190966
 21
6.418665
 39
0
 62
0
  0
LINE
  8
default
  6
CONTINUOUS
 10
39.038655
 20
6.918665
 11
39.038655
 21
6.418665
 39
0
 62
0
  0
LINE
  8
default
  6
CONTINUOUS
 10
37.707022
 20
7.129751
 11
38.150456
 21
7.129751
 39
0
 62
0
  0
LINE
  8
default
  6
CONTINUOUS
 10
37.707022
 20
7.129751
 11
37.707022
 21
6.940418
 39
0
 62
0
  0
LINE
  8
default
  6
CONTINUOUS
 10
37.707022
 20
6.940418
 11
38.150456
 21
6.940418
 39
0
 62
0
  0
LINE
  8
default
  6
CONTINUOUS
 10
38.150456
 20
7.129751
 11
38.150456
 21
6.940418
 39
0
 62
0
  0
LINE
  8
default
  6
CONTINUOUS
 10
37.776128
 20
6.940418
 11
37.776128
 21
6.396912
 39
0
 62
0
  0
LINE
  8
default
  6
CONTINUOUS
 10
38.081350
 20
6.940418
 11
38.081350
 21
6.396912
 39
0
 62
0
  0
LINE
  8
default
  6
CONTINUOUS
 10
37.776128
 20
6.396912
 11
38.081350
 21
6.396912
 39
0
 62
0
  0
TEXT
  8
labels
  6
CONTINUOUS
 10
40.894040
 20
15.317231
 40
0.700000
 50
0.000000
 72
0
  7
Normal#0.070000#0.420000
  1
flexible hose
 39
0
 62
0
  0
TEXT
  8
labels
  6
CONTINUOUS
 10
51.214352
 20
19.995773
 40
0.700000
 50
0.000000
 72
0
  7
Normal#0.070000#0.420000
  1
hose clamp
 39
0
 62
0
  0
TEXT
  8
labels
  6
CONTINUOUS
 10
55.136071
 20
17.174888
 40
0.700000
 50
0.000000
 72
0
  7
Normal#0.070000#0.420000
  1
Blow gun
 39
0
 62
0
  0
DIMENSION
  8
labels
  6
CONTINUOUS
  1
;;
 10
51.902373
 20
19.238950
 13
51.902373
 23
19.238950
 14
50.732738
 24
17.794106
 70
7
 39
0
 62
0
  0
DIMENSION
  8
labels
  6
CONTINUOUS
  1
;;
 10
54.723258
 20
16.899679
 13
54.723258
 23
16.899679
 14
53.416019
 24
16.074054
 70
7
 39
0
 62
0
  0
TEXT
  8
labels
  6
CONTINUOUS
 10
50.732738
 20
10.225878
 40
0.700000
 50
0.000000
 72
0
  7
Normal#0.070000#0.420000
  1
Air line quick connect
 39
0
 62
0
  0
DIMENSION
  8
labels
  6
CONTINUOUS
  1
;;
 10
52.796800
 20
11.257909
 13
52.796800
 23
11.257909
 14
53.622425
 24
13.184367
 70
7
 39
0
 62
0
  0
DIMENSION
  8
labels
  6
CONTINUOUS
  1
about 2";;
 10
28.372114
 20
19.654550
 13
28.372114
 23
18.667763
 14
30.372114
 24
18.649144
 50
0.000000
 70
0
 39
0
 62
0
  0
DIMENSION
  8
labels
  6
CONTINUOUS
  1
;;
 10
17.483757
 20
18.436129
 13
17.483757
 23
18.436129
 14
22.675651
 24
20.125059
 70
7
 39
0
 62
0
  0
CIRCLE
  8
labels
  6
DOT
 10
32.621570
 20
18.123364
 40
3.000000
 39
0
 62
0
  0
TEXT
  8
labels
  6
CONTINUOUS
 10
23.418629
 20
4.540738
 40
0.700000
 50
0.000000
 72
0
  7
Normal#0.070000#0.420000
  1
1/4" F to
 39
0
 62
0
  0
TEXT
  8
labels
  6
CONTINUOUS
 10
23.418629
 20
3.560738
 40
0.700000
 50
0.000000
 72
0
  7
Normal#0.070000#0.420000
  1
1/8" barbed hose
 39
0
 62
0
  0
TEXT
  8
labels
  6
CONTINUOUS
 10
24.287588
 20
10.307466
 40
0.700000
 50
0.000000
 72
0
  7
Normal#0.070000#0.420000
  1
hopper back wall
 39
0
 62
0
  0
TEXT
  8
labels
  6
CONTINUOUS
 10
31.092130
 20
3.444664
 40
0.700000
 50
0.000000
 72
0
  7
Normal#0.070000#0.420000
  1
1/4" M to 1/4" M
 39
0
 62
0
  0
TEXT
  8
labels
  6
CONTINUOUS
 10
40.785961
 20
3.438740
 40
0.700000
 50
0.000000
 72
0
  7
Normal#0.070000#0.420000
  1
flexible hose
 39
0
 62
0
  0
TEXT
  8
labels
  6
CONTINUOUS
 10
41.945232
 20
10.212671
 40
0.700000
 50
0.000000
 72
0
  7
Normal#0.070000#0.420000
  1
hose clamp
 39
0
 62
0
  0
TEXT
  8
labels
  6
CONTINUOUS
 10
32.664156
 20
10.028017
 40
0.700000
 50
0.000000
 72
0
  7
Normal#0.070000#0.420000
  1
2" dia fender washer
 39
0
 62
0
  0
DIMENSION
  8
labels
  6
CONTINUOUS
  1
;;
 10
28.373670
 20
10.035917
 13
28.373670
 23
10.035917
 14
30.967711
 24
9.195594
 70
7
 39
0
 62
0
  0
DIMENSION
  8
labels
  6
CONTINUOUS
  1
;;
 10
27.789098
 20
4.957443
 13
27.789098
 23
4.957443
 14
29.579351
 24
6.053517
 70
7
 39
0
 62
0
  0
DIMENSION
  8
labels
  6
CONTINUOUS
  1
;;
 10
28.592885
 20
4.592085
 13
28.592885
 23
4.592085
 14
34.986647
 24
6.090052
 70
7
 39
0
 62
0
  0
DIMENSION
  8
labels
  6
CONTINUOUS
  1
;;
 10
34.548217
 20
9.634023
 13
34.548217
 23
9.634023
 14
32.611821
 24
7.916841
 70
7
 39
0
 62
0
  0
DIMENSION
  8
labels
  6
CONTINUOUS
  1
;;
 10
42.403410
 20
9.962845
 13
42.403410
 23
9.962845
 14
38.530617
 24
7.405340
 70
7
 39
0
 62
0
  0
DIMENSION
  8
labels
  6
CONTINUOUS
  1
;;
 10
42.732232
 20
4.774764
 13
42.732232
 23
4.774764
 14
42.439946
 24
6.053517
 70
7
 39
0
 62
0
  0
DIMENSION
  8
labels
  6
CONTINUOUS
  1
;;
 10
32.864255
 20
15.133196
 13
32.864255
 23
15.133196
 14
33.222604
 24
11.561436
 70
7
 39
0
 62
0
  0
TEXT
  8
labels
  6
CONTINUOUS
 10
10.790591
 20
17.059964
 40
0.700000
 50
0.000000
 72
0
  7
Normal#0.070000#0.420000
  1
Distance to front face of hopper:
 39
0
 62
0
  0
TEXT
  8
labels
  6
CONTINUOUS
 10
10.790591
 20
16.079964
 40
0.700000
 50
0.000000
 72
0
  7
Normal#0.070000#0.420000
  1
- this affects performance
 39
0
 62
0
  0
TEXT
  8
labels
  6
CONTINUOUS
 10
10.790591
 20
15.099964
 40
0.700000
 50
0.000000
 72
0
  7
Normal#0.070000#0.420000
  1
- too short or too long will decrease spray
 39
0
 62
0
  0
TEXT
  8
labels
  6
CONTINUOUS
 10
10.790591
 20
14.119964
 40
0.700000
 50
0.000000
 72
0
  7
Normal#0.070000#0.420000
  1
- to shorten, saw off barbed end
 39
0
 62
0
  0
TEXT
  8
labels
  6
CONTINUOUS
 10
10.790591
 20
13.139964
 40
0.700000
 50
0.000000
 72
0
  7
Normal#0.070000#0.420000
  1
- to lengthen, add 1/4" fittings
 39
0
 62
0
  0
DIMENSION
  8
labels
  6
CONTINUOUS
  1
;;
 10
43.164509
 20
16.418065
 13
43.164509
 23
16.418065
 14
43.439717
 24
17.931710
 70
7
 39
0
 62
0
  0
DIMENSION
  8
labels
  6
CONTINUOUS
  1
;;
 10
33.780966
 20
4.519014
 13
33.780966
 23
4.519014
 14
33.488680
 24
6.163124
 70
7
 39
0
 62
0
  0
ARC
  8
default
  6
CONTINUOUS
 10
32.007127
 20
39.725871
 40
0.250000
 50
16.476881
 51
196.476881
 39
0
 62
0
  0
LINE
  8
default
  6
CONTINUOUS
 10
32.114925
 20
38.479975
 11
31.767393
 21
39.654964
 39
0
 62
0
  0
LINE
  8
default
  6
CONTINUOUS
 10
32.636337
 20
38.479975
 11
32.246860
 21
39.796778
 39
0
 62
0
  0
LINE
  8
default
  6
CONTINUOUS
 10
32.872114
 20
33.007988
 11
47.622114
 21
33.007988
 39
0
 62
0
  0
LINE
  8
default
  6
CONTINUOUS
 10
48.372114
 20
35.257988
 11
48.372114
 21
32.757988
 39
0
 62
0
  0
LINE
  8
default
  6
CONTINUOUS
 10
47.622114
 20
35.257988
 11
48.372114
 21
35.257988
 39
0
 62
0
  0
LINE
  8
default
  6
CONTINUOUS
 10
47.622114
 20
32.757988
 11
48.372114
 21
32.757988
 39
0
 62
0
  0
LINE
  8
default
  6
CONTINUOUS
 10
47.622114
 20
35.257988
 11
47.622114
 21
32.757988
 39
0
 62
0
  0
LINE
  8
default
  6
CONTINUOUS
 10
48.902444
 20
32.227658
 11
50.670211
 21
33.995425
 39
0
 62
0
  0
LINE
  8
default
  6
CONTINUOUS
 10
48.902444
 20
32.227658
 11
48.372114
 21
32.757988
 39
0
 62
0
  0
LINE
  8
default
  6
CONTINUOUS
 10
48.372114
 20
32.757988
 11
50.139881
 21
34.525755
 39
0
 62
0
  0
LINE
  8
default
  6
CONTINUOUS
 10
50.670211
 20
33.995425
 11
50.139881
 21
34.525755
 39
0
 62
0
  0
LINE
  8
default
  6
CONTINUOUS
 10
51.554095
 20
29.576008
 11
53.321862
 21
31.343775
 39
0
 62
0
  0
LINE
  8
default
  6
CONTINUOUS
 10
52.614755
 20
28.515348
 11
54.382522
 21
30.283115
 39
0
 62
0
  0
LINE
  8
default
  6
CONTINUOUS
 10
51.730871
 20
29.752785
 11
49.079221
 21
32.404435
 39
0
 62
0
  0
LINE
  8
default
  6
CONTINUOUS
 10
53.321862
 20
31.343775
 11
54.382522
 21
30.283115
 39
0
 62
0
  0
LINE
  8
default
  6
CONTINUOUS
 10
51.554095
 20
29.576008
 11
52.614755
 21
28.515348
 39
0
 62
0
  0
ARC
  8
default
  6
CONTINUOUS
 10
48.372114
 20
32.757988
 40
2.250000
 50
45.000000
 51
90.000000
 39
0
 62
0
  0
LINE
  8
default
  6
CONTINUOUS
 10
53.498638
 20
29.399231
 11
53.689890
 21
29.207980
 39
0
 62
0
  0
LINE
  8
default
  6
CONTINUOUS
 10
53.689890
 20
29.207980
 11
53.638667
 21
29.156756
 39
0
 62
0
  0
LINE
  8
default
  6
CONTINUOUS
 10
53.978025
 20
28.817398
 11
53.966642
 21
28.719496
 39
0
 62
0
  0
LINE
  8
default
  6
CONTINUOUS
 10
54.102432
 20
28.583706
 11
54.156166
 21
28.592909
 39
0
 62
0
  0
LINE
  8
default
  6
CONTINUOUS
 10
54.146963
 20
28.539175
 11
54.156166
 21
28.592909
 39
0
 62
0
  0
LINE
  8
default
  6
CONTINUOUS
 10
54.146963
 20
28.539175
 11
54.276656
 21
28.409482
 39
0
 62
0
  0
LINE
  8
default
  6
CONTINUOUS
 10
53.978025
 20
28.817398
 11
53.638667
 21
29.156756
 39
0
 62
0
  0
LINE
  8
default
  6
CONTINUOUS
 10
54.102432
 20
28.583706
 11
53.966642
 21
28.719496
 39
0
 62
0
  0
LINE
  8
default
  6
CONTINUOUS
 10
53.145085
 20
29.045678
 11
53.336337
 21
28.854426
 39
0
 62
0
  0
LINE
  8
default
  6
CONTINUOUS
 10
53.336337
 20
28.854426
 11
53.387560
 21
28.905649
 39
0
 62
0
  0
LINE
  8
default
  6
CONTINUOUS
 10
53.726919
 20
28.566291
 11
53.824821
 21
28.577674
 39
0
 62
0
  0
LINE
  8
default
  6
CONTINUOUS
 10
53.960610
 20
28.441884
 11
53.951407
 21
28.388151
 39
0
 62
0
  0
LINE
  8
default
  6
CONTINUOUS
 10
54.005141
 20
28.397354
 11
53.951407
 21
28.388151
 39
0
 62
0
  0
LINE
  8
default
  6
CONTINUOUS
 10
54.005141
 20
28.397354
 11
54.134834
 21
28.267660
 39
0
 62
0
  0
LINE
  8
default
  6
CONTINUOUS
 10
53.726919
 20
28.566291
 11
53.387560
 21
28.905649
 39
0
 62
0
  0
LINE
  8
default
  6
CONTINUOUS
 10
53.960610
 20
28.441884
 11
53.824821
 21
28.577674
 39
0
 62
0
  0
LINE
  8
default
  6
CONTINUOUS
 10
54.134834
 20
28.267660
 11
54.276656
 21
28.409482
 39
0
 62
0
  0
LINE
  8
default
  6
CONTINUOUS
 10
27.872114
 20
32.894204
 11
32.872114
 21
32.894204
 39
0
 62
0
  0
LINE
  8
default
  6
CONTINUOUS
 10
36.670203
 20
34.059700
 11
36.878038
 21
33.875595
 39
0
 62
0
  0
LINE
  8
default
  6
CONTINUOUS
 10
36.878038
 20
33.875595
 11
37.149986
 21
33.723624
 39
0
 62
0
  0
LINE
  8
default
  6
CONTINUOUS
 10
36.998814
 20
34.436548
 11
37.229971
 21
34.419490
 39
0
 62
0
  0
LINE
  8
default
  6
CONTINUOUS
 10
37.229971
 20
34.419490
 11
37.445929
 21
34.419490
 39
0
 62
0
  0
LINE
  8
default
  6
CONTINUOUS
 10
37.149986
 20
33.723624
 11
37.445929
 21
33.606480
 39
0
 62
0
  0
LINE
  8
default
  6
CONTINUOUS
 10
37.445929
 20
34.419490
 11
37.654943
 21
34.439988
 39
0
 62
0
  0
LINE
  8
default
  6
CONTINUOUS
 10
37.654943
 20
34.439988
 11
37.872114
 21
34.478036
 39
0
 62
0
  0
LINE
  8
default
  6
CONTINUOUS
 10
37.445929
 20
33.606480
 11
37.632114
 21
33.564867
 39
0
 62
0
  0
LINE
  8
default
  6
CONTINUOUS
 10
37.632114
 20
33.564867
 11
37.807138
 21
33.534428
 39
0
 62
0
  0
LINE
  8
default
  6
CONTINUOUS
 10
37.807138
 20
33.534428
 11
37.872114
 21
33.526818
 39
0
 62
0
  0
LINE
  8
default
  6
CONTINUOUS
 10
37.872114
 20
34.478036
 11
37.872114
 21
33.526818
 39
0
 62
0
  0
LINE
  8
default
  6
DOT
 10
51.112153
 20
30.371503
 11
52.703143
 21
28.780513
 39
0
 62
0
  0
LINE
  8
default
  6
DOT
 10
51.112153
 20
30.371503
 11
51.565997
 21
30.825347
 39
0
 62
0
  0
LINE
  8
default
  6
DOT
 10
52.703143
 20
28.780513
 11
53.461351
 21
29.538721
 39
0
 62
0
  0
LINE
  8
default
  6
DOT
 10
52.398698
 20
30.845805
 11
52.523410
 21
30.868836
 39
0
 62
0
  0
LINE
  8
default
  6
DOT
 10
52.523410
 20
30.868836
 11
52.619785
 21
30.868836
 39
0
 62
0
  0
LINE
  8
default
  6
DOT
 10
52.619785
 20
30.868836
 11
52.697626
 21
30.854009
 39
0
 62
0
  0
LINE
  8
default
  6
DOT
 10
52.697626
 20
30.854009
 11
52.768054
 21
30.824356
 39
0
 62
0
  0
LINE
  8
default
  6
DOT
 10
52.768054
 20
30.824356
 11
52.863299
 21
30.741678
 39
0
 62
0
  0
LINE
  8
default
  6
DOT
 10
53.170957
 20
30.434020
 11
53.222044
 21
30.368500
 39
0
 62
0
  0
LINE
  8
default
  6
DOT
 10
53.222044
 20
30.368500
 11
53.248397
 21
30.321341
 39
0
 62
0
  0
LINE
  8
default
  6
DOT
 10
53.248397
 20
30.321341
 11
53.266429
 21
30.275569
 39
0
 62
0
  0
LINE
  8
default
  6
DOT
 10
53.266429
 20
30.275569
 11
53.267816
 21
30.214540
 39
0
 62
0
  0
LINE
  8
default
  6
DOT
 10
53.267816
 20
30.214540
 11
53.267816
 21
30.160445
 39
0
 62
0
  0
LINE
  8
default
  6
DOT
 10
53.267816
 20
30.160445
 11
53.265226
 21
30.042900
 39
0
 62
0
  0
ARC
  8
default
  6
DOT
 10
53.946501
 20
30.017680
 40
0.681741
 50
174.572361
 51
224.632135
 39
0
 62
0
  0
ARC
  8
default
  6
DOT
 10
51.948199
 20
32.225531
 40
1.451411
 50
254.732181
 51
288.082574
 39
0
 62
0
  0
LINE
  8
default
  6
DOT
 10
52.863299
 20
30.741678
 11
53.170957
 21
30.434020
 39
0
 62
0
  0
LINE
  8
default
  6
DOT
 10
49.484701
 20
32.097903
 11
51.161627
 21
30.420977
 39
0
 62
0
  0
LINE
  8
default
  6
DOT
 10
49.838254
 20
32.451456
 11
49.484701
 21
32.097903
 39
0
 62
0
  0
LINE
  8
default
  6
DOT
 10
49.838254
 20
32.451456
 11
51.515180
 21
30.774530
 39
0
 62
0
  0
LINE
  8
default
  6
DOT
 10
51.720698
 20
29.586181
 11
52.074252
 21
29.232628
 39
0
 62
0
  0
LINE
  8
default
  6
DOT
 10
51.809087
 20
29.674569
 11
51.720698
 21
29.586181
 39
0
 62
0
  0
LINE
  8
default
  6
DOT
 10
52.162640
 20
29.321016
 11
52.074252
 21
29.232628
 39
0
 62
0
  0
LINE
  8
default
  6
DOT
 10
52.003541
 20
29.303338
 11
51.915153
 21
29.214950
 39
0
 62
0
  0
LINE
  8
default
  6
DOT
 10
51.703021
 20
29.427082
 11
51.915153
 21
29.214950
 39
0
 62
0
  0
LINE
  8
default
  6
DOT
 10
51.791409
 20
29.515470
 11
51.703021
 21
29.427082
 39
0
 62
0
  0
LINE
  8
default
  6
DOT
 10
52.770551
 20
29.425705
 11
52.901797
 21
29.305396
 39
0
 62
0
  0
LINE
  8
default
  6
DOT
 10
52.167369
 20
29.063451
 11
52.770551
 21
29.425705
 39
0
 62
0
  0
LINE
  8
default
  6
DOT
 10
52.728669
 20
28.960475
 11
52.387749
 21
28.922595
 39
0
 62
0
  0
LINE
  8
default
  6
DOT
 10
52.901797
 20
29.305396
 11
52.728669
 21
28.960475
 39
0
 62
0
  0
CIRCLE
  8
default
  6
DOT
 10
52.743878
 20
29.265881
 40
0.100000
 39
0
 62
0
  0
LINE
  8
default
  6
DOT
 10
52.167369
 20
29.063451
 11
52.059008
 21
29.071094
 39
0
 62
0
  0
LINE
  8
default
  6
DOT
 10
52.387749
 20
28.922595
 11
52.193829
 21
28.936274
 39
0
 62
0
  0
LINE
  8
default
  6
CONTINUOUS
 10
51.773731
 20
29.356371
 11
51.596955
 21
29.179595
 39
0
 62
0
  0
LINE
  8
default
  6
CONTINUOUS
 10
51.596955
 20
29.179595
 11
51.667665
 21
29.108884
 39
0
 62
0
  0
LINE
  8
default
  6
CONTINUOUS
 10
51.844442
 20
29.285661
 11
51.667665
 21
29.108884
 39
0
 62
0
  0
LINE
  8
default
  6
CONTINUOUS
 10
49.751887
 20
29.108527
 11
49.760683
 21
29.233217
 39
0
 62
0
  0
LINE
  8
default
  6
CONTINUOUS
 10
52.059008
 20
29.071094
 11
49.760683
 21
29.233217
 39
0
 62
0
  0
LINE
  8
default
  6
CONTINUOUS
 10
52.193829
 20
28.936274
 11
49.751887
 21
29.108527
 39
0
 62
0
  0
LINE
  8
default
  6
CONTINUOUS
 10
32.872114
 20
38.479975
 11
32.872114
 21
32.894204
 39
0
 62
0
  0
LINE
  8
default
  6
CONTINUOUS
 10
32.872114
 20
36.957404
 11
36.670203
 21
34.059700
 39
0
 62
0
  0
LINE
  8
default
  6
CONTINUOUS
 10
32.872114
 20
37.620802
 11
36.998814
 21
34.436548
 39
0
 62
0
  0
LINE
  8
default
  6
CONTINUOUS
 10
32.872114
 20
35.007988
 11
35.427260
 21
35.007988
 39
0
 62
0
  0
LINE
  8
default
  6
CONTINUOUS
 10
36.258245
 20
35.007988
 11
47.622114
 21
35.007988
 39
0
 62
0
  0
LINE
  8
default
  6
DOT
 10
32.372114
 20
38.479975
 11
32.372114
 21
32.894204
 39
0
 62
0
  0
LINE
  8
default
  6
DOT
 10
28.372114
 20
35.066582
 11
28.372114
 21
32.894204
 39
0
 62
0
  0
LINE
  8
default
  6
CONTINUOUS
 10
26.325966
 20
38.479975
 11
32.872114
 21
38.479975
 39
0
 62
0
  0
LINE
  8
default
  6
CONTINUOUS
 10
27.872114
 20
34.961567
 11
26.325966
 21
38.479975
 39
0
 62
0
  0
LINE
  8
default
  6
CONTINUOUS
 10
27.872114
 20
34.961567
 11
27.872114
 21
32.894204
 39
0
 62
0
  0
LINE
  8
default
  6
DOT
 10
27.204857
 20
36.479975
 11
32.872114
 21
36.479975
 39
0
 62
0
  0
LINE
  8
default
  6
DOT
 10
28.372114
 20
35.066582
 11
26.872114
 21
38.479975
 39
0
 62
0
  0
LINE
  8
default
  6
CONTINUOUS
 10
36.305577
 20
34.337887
 11
36.598009
 21
34.745818
 39
0
 62
0
  0
LINE
  8
default
  6
CONTINUOUS
 10
31.921039
 20
39.135495
 11
32.387494
 21
39.321301
 39
0
 62
0
  0
DIMENSION
  8
labels
  6
CONTINUOUS
  1
4" (lb);;
 10
28.372114
 20
30.403805
 13
28.372114
 23
32.894204
 14
32.372114
 24
32.894204
 50
0.000000
 70
0
 39
0
 62
0
  0
DIMENSION
  8
labels
  6
CONTINUOUS
  1
5 1/2" (lt);;
 10
26.872114
 20
40.604296
 13
26.872114
 23
38.479975
 14
32.372114
 24
38.479975
 50
0.000000
 70
0
 39
0
 62
0
  0
TEXT
  8
labels
  6
CONTINUOUS
 10
49.012686
 20
37.477828
 40
0.700000
 50
0.000000
 72
0
  7
Normal#0.070000#0.420000
  1
45 elbow
 39
0
 62
0
  0
TEXT
  8
labels
  6
CONTINUOUS
 10
42.545290
 20
37.959442
 40
0.700000
 50
0.000000
 72
0
  7
Normal#0.070000#0.420000
  1
11" long
 39
0
 62
0
  0
TEXT
  8
labels
  6
CONTINUOUS
 10
54.792060
 20
32.592880
 40
0.700000
 50
0.000000
 72
0
  7
Normal#0.070000#0.420000
  1
Cap
 39
0
 62
0
  0
DIMENSION
  8
labels
  6
CONTINUOUS
  1
;;
 10
43.577321
 20
37.477828
 13
43.577321
 23
37.477828
 14
43.302113
 24
35.688974
 70
7
 39
0
 62
0
  0
DIMENSION
  8
labels
  6
CONTINUOUS
  1
;;
 10
50.113519
 20
36.996213
 13
50.113519
 23
36.996213
 14
49.356696
 24
35.344963
 70
7
 39
0
 62
0
  0
DIMENSION
  8
labels
  6
CONTINUOUS
  1
;;
 10
52.590394
 20
34.519338
 13
52.590394
 23
34.519338
 14
52.039977
 24
33.280901
 70
7
 39
0
 62
0
  0
DIMENSION
  8
labels
  6
CONTINUOUS
  1
;;
 10
54.860862
 20
32.317672
 13
54.860862
 23
32.317672
 14
54.035237
 24
31.079234
 70
7
 39
0
 62
0
  0
TEXT
  8
labels
  6
CONTINUOUS
 10
52.659196
 20
34.863349
 40
0.700000
 50
0.000000
 72
0
  7
Normal#0.070000#0.420000
  1
5" long
 39
0
 62
0
  0
TEXT
  8
labels
  6
CONTINUOUS
 10
34.083127
 20
31.194280
 40
0.700000
 50
0.000000
 72
0
  7
Normal#0.070000#0.420000
  1
1/2" copper water pipe handle:
 39
0
 62
0
  0
TEXT
  8
labels
  6
CONTINUOUS
 10
34.083127
 20
30.214280
 40
0.700000
 50
0.000000
 72
0
  7
Normal#0.070000#0.420000
  1
6 3/4" length for top (1x)
 39
0
 62
0
  0
TEXT
  8
labels
  6
CONTINUOUS
 10
34.083127
 20
29.234280
 40
0.700000
 50
0.000000
 72
0
  7
Normal#0.070000#0.420000
  1
90 elbow (2x)
 39
0
 62
0
  0
TEXT
  8
labels
  6
CONTINUOUS
 10
34.083127
 20
28.254280
 40
0.700000
 50
0.000000
 72
0
  7
Normal#0.070000#0.420000
  1
1 3/4" length for sides near top (2x)
 39
0
 62
0
  0
TEXT
  8
labels
  6
CONTINUOUS
 10
34.083127
 20
27.274280
 40
0.700000
 50
0.000000
 72
0
  7
Normal#0.070000#0.420000
  1
45 elbow (2x)
 39
0
 62
0
  0
TEXT
  8
labels
  6
CONTINUOUS
 10
34.083127
 20
26.294280
 40
0.700000
 50
0.000000
 72
0
  7
Normal#0.070000#0.420000
  1
5 1/4" length for sides near bottom (2x)
 39
0
 62
0
  0
TEXT
  8
labels
  6
CONTINUOUS
 10
34.083127
 20
25.314280
 40
0.700000
 50
0.000000
 72
0
  7
Normal#0.070000#0.420000
  1
45 elbow with end crimped (2x)
 39
0
 62
0
  0
TEXT
  8
labels
  6
CONTINUOUS
 10
49.850002
 20
25.886940
 40
0.700000
 50
0.000000
 72
0
  7
Normal#0.070000#0.420000
  1
ABS pipe cut away to
 39
0
 62
0
  0
TEXT
  8
labels
  6
CONTINUOUS
 10
49.850002
 20
24.906940
 40
0.700000
 50
0.000000
 72
0
  7
Normal#0.070000#0.420000
  1
allow blow gun trigger to
 39
0
 62
0
  0
TEXT
  8
labels
  6
CONTINUOUS
 10
49.850002
 20
23.926940
 40
0.700000
 50
0.000000
 72
0
  7
Normal#0.070000#0.420000
  1
hang below handle
 39
0
 62
0
  0
DIMENSION
  8
labels
  6
CONTINUOUS
  1
;;
 10
52.530810
 20
27.139927
 13
52.530810
 23
27.139927
 14
52.501671
 24
28.451191
 70
7
 39
0
 62
0
  0
TEXT
  8
labels
  6
CONTINUOUS
 10
55.240758
 20
30.811468
 40
0.700000
 50
0.000000
 72
0
  7
Normal#0.070000#0.420000
  1
quick connect holds
 39
0
 62
0
  0
TEXT
  8
labels
  6
CONTINUOUS
 10
55.240758
 20
29.831468
 40
0.700000
 50
0.000000
 72
0
  7
Normal#0.070000#0.420000
  1
blow gun to end cap
 39
0
 62
0
  0
DIMENSION
  8
labels
  6
CONTINUOUS
  1
;;
 10
34.383510
 20
32.468292
 13
34.383510
 23
32.468292
 14
34.147509
 24
35.583511
 70
7
 39
0
 62
0
  0
DIMENSION
  8
labels
  6
CONTINUOUS
  1
;;
 10
54.861948
 20
29.762456
 13
54.861948
 23
29.762456
 14
53.900354
 24
29.325368
 70
7
 39
0
 62
0
  0
TEXT
  8
labels
  6
CONTINUOUS
 10
49.838310
 20
39.335484
 40
0.700000
 50
0.000000
 72
0
  7
Normal#0.070000#0.420000
  1
1 1/2" ABS DWV Pipe
 39
0
 62
0
  0
LINE
  8
default
  6
CONTINUOUS
 10
53.145085
 20
31.166998
 11
50.493435
 21
33.818649
 39
0
 62
0
  0
CIRCLE
  8
default
  6
CONTINUOUS
 10
8.178082
 20
33.918019
 40
0.250000
 39
0
 62
0
  0
LINE
  8
default
  6
CONTINUOUS
 10
4.172685
 20
38.479975
 11
4.172685
 21
36.479975
 39
0
 62
0
  0
LINE
  8
default
  6
CONTINUOUS
 10
4.172685
 20
38.479975
 11
12.172685
 21
38.479975
 39
0
 62
0
  0
LINE
  8
default
  6
CONTINUOUS
 10
12.172685
 20
38.479975
 11
12.172685
 21
36.479975
 39
0
 62
0
  0
ARC
  8
default
  6
CONTINUOUS
 10
8.172685
 20
33.894189
 40
1.000000
 50
225.000000
 51
315.000000
 39
0
 62
0
  0
LINE
  8
default
  6
DOT
 10
5.672685
 20
34.979975
 11
10.672685
 21
34.979975
 39
0
 62
0
  0
LINE
  8
default
  6
CONTINUOUS
 10
4.172685
 20
36.479975
 11
7.465578
 21
33.187082
 39
0
 62
0
  0
LINE
  8
default
  6
CONTINUOUS
 10
8.879791
 20
33.187083
 11
12.172685
 21
36.479975
 39
0
 62
0
  0
LINE
  8
default
  6
DOT
 10
7.465578
 20
33.187082
 11
8.172684
 21
32.479976
 39
0
 62
0
  0
LINE
  8
default
  6
DOT
 10
8.172684
 20
32.479976
 11
8.879791
 21
33.187083
 39
0
 62
0
  0
DIMENSION
  8
labels
  6
CONTINUOUS
  1
8" (w);;
 10
4.172685
 20
39.954703
 13
4.172685
 23
38.479975
 14
12.172685
 24
38.479975
 50
0.000000
 70
0
 39
0
 62
0
  0
DIMENSION
  8
labels
  6
CONTINUOUS
  1
6" (ht);;
 10
3.255598
 20
38.479975
 13
4.172685
 23
38.479975
 14
8.172684
 24
32.479976
 50
90.000000
 70
0
 39
0
 62
0
  0
DIMENSION
  8
labels
  6
CONTINUOUS
  1
2" (hl);;
 10
14.470337
 20
38.479975
 13
12.172685
 23
38.479975
 14
12.172685
 24
36.479975
 50
90.000000
 70
0
 39
0
 62
0
  0
DIMENSION
  8
labels
  6
CONTINUOUS
  1
2 1/2" (hf);;
 10
14.443317
 20
32.479976
 13
8.172684
 23
32.479976
 14
10.672685
 24
34.979975
 50
90.000000
 70
0
 39
0
 62
0
  0
DIMENSION
  8
labels
  6
CONTINUOUS
  1
1" (r);;
 10
8.172685
 20
33.894189
 15
8.100644
 25
30.512143
 40
1.000000
 70
4
 39
0
 62
0
  0
TEXT
  8
default
  6
CONTINUOUS
 10
5.645911
 20
43.849330
 40
1.500000
 50
0.000000
 72
0
  7
Normal#0.150000#0.900000
  1
Front View
 39
0
 62
0
  0
TEXT
  8
default
  6
CONTINUOUS
 10
18.959108
 20
45.074391
 40
2.000000
 50
0.000000
 72
0
  7
Normal#0.200000#1.200000
  1
Stucco Sprayer Overview
 39
0
 62
0
  0
TEXT
  8
default
  6
CONTINUOUS
 10
38.303903
 20
41.974949
 40
1.500000
 50
0.000000
 72
0
  7
Normal#0.150000#0.900000
  1
Side View
 39
0
 62
0
  0
ENDSEC
  0
EOF
