  0
SECTION
  2
HEADER
  9
$LIMMIN
 10
0.000000
 20
0.000000
  9
$LIMMAX
 10
33.989276
 20
43.885178
  9
$EXTMIN
 10
0.000000
 20
0.000000
  9
$EXTMAX
 10
33.989276
 20
43.885178
  9
$ANGBASE
 50
0.000000
  9
$ANGDIR
 70
0
  9
$INSUNITS
 70
1
  9
$DIMALT
 70
1
  9
$DIMLUNIT
 70
5
  9
$DIMASZ
 40
0.125000
  9
$DIMTXT
 40
0.200000
  9
$DIMRND
 40
0.125000
  9
$DIMEXE
 40
0.083333
  9
$DIMEXO
 40
0.083333
  9
$DIMAUNIT
 70
0
  9
$DIMADEC
 70
2
  9
$GRIDUNIT
 10
0.000977
 20
0.000977
  9
$PLIMMIN
 10
0.000000
 20
0.000000
  9
$PLIMMAX
 10
8.500000
 20
11.000000
  9
$PSVPSCALE
 40
0.240000
  0
ENDSEC
  0
SECTION
  2
TABLES
  0
TABLE
  2
LTYPE
 70
     1
  0
LTYPE
  2
CONTINUOUS
 70
    64
  3
Ausgez
 72
    65
 73
  0
 40
0.000000
  0
ENDTAB
  0
TABLE
  2
LAYER
 70
     1
  0
LAYER
  2
default
 70
    64
 62
0
  6
CONTINUOUS
  0
LAYER
  2
labels
 70
    64
 62
0
  6
CONTINUOUS
  0
ENDTAB
  0
ENDSEC
  0
SECTION
  2
BLOCKS
  0
ENDSEC
  0
SECTION
  2
ENTITIES
  0
LINE
  8
default
  6
CONTINUOUS
 10
20.133428
 20
11.077939
 11
20.133428
 21
5.577939
 39
0
 62
0
  0
LINE
  8
default
  6
CONTINUOUS
 10
5.133428
 20
11.077939
 11
5.133428
 21
5.577939
 39
0
 62
0
  0
POINT
  8
default
  6
CONTINUOUS
 10
7.133428
 20
6.452939
 39
0
 62
0
  0
POINT
  8
default
  6
CONTINUOUS
 10
9.258428
 20
7.077939
 39
0
 62
0
  0
POINT
  8
default
  6
CONTINUOUS
 10
16.008428
 20
7.077939
 39
0
 62
0
  0
POINT
  8
default
  6
CONTINUOUS
 10
18.133428
 20
6.452939
 39
0
 62
0
  0
LINE
  8
default
  6
CONTINUOUS
 10
4.633428
 20
11.077939
 11
4.633428
 21
5.577939
 39
0
 62
0
  0
LINE
  8
default
  6
CONTINUOUS
 10
20.633428
 20
11.077939
 11
20.633428
 21
5.577939
 39
0
 62
0
  0
LINE
  8
default
  6
CONTINUOUS
 10
5.133428
 20
11.077939
 11
4.633428
 21
11.077939
 39
0
 62
0
  0
LINE
  8
default
  6
CONTINUOUS
 10
20.633428
 20
11.077939
 11
20.133428
 21
11.077939
 39
0
 62
0
  0
LINE
  8
default
  6
CONTINUOUS
 10
20.633428
 20
5.577939
 11
20.133428
 21
5.577939
 39
0
 62
0
  0
LINE
  8
default
  6
CONTINUOUS
 10
5.133428
 20
5.577939
 11
4.633428
 21
5.577939
 39
0
 62
0
  0
LINE
  8
default
  6
CONTINUOUS
 10
5.133428
 20
12.077939
 11
20.133428
 21
12.077939
 39
0
 62
0
  0
LINE
  8
default
  6
CONTINUOUS
 10
7.476287
 20
5.511424
 11
5.534247
 21
4.661782
 39
0
 62
0
  0
LINE
  8
default
  6
CONTINUOUS
 10
9.402437
 20
6.077939
 11
7.476287
 21
5.511424
 39
0
 62
0
  0
LINE
  8
default
  6
CONTINUOUS
 10
9.402437
 20
6.077939
 11
15.864419
 21
6.077939
 39
0
 62
0
  0
LINE
  8
default
  6
CONTINUOUS
 10
15.864419
 20
6.077939
 11
17.790569
 21
5.511424
 39
0
 62
0
  0
LINE
  8
default
  6
CONTINUOUS
 10
17.790569
 20
5.511424
 11
19.732609
 21
4.661782
 39
0
 62
0
  0
LINE
  8
default
  6
CONTINUOUS
 10
5.133428
 20
12.077939
 11
5.133428
 21
11.077939
 39
0
 62
0
  0
LINE
  8
default
  6
CONTINUOUS
 10
20.133428
 20
12.077939
 11
20.133428
 21
11.077939
 39
0
 62
0
  0
LINE
  8
default
  6
CONTINUOUS
 10
20.133428
 20
5.577939
 11
19.732609
 21
4.661782
 39
0
 62
0
  0
LINE
  8
default
  6
CONTINUOUS
 10
5.534247
 20
4.661782
 11
5.133428
 21
5.577939
 39
0
 62
0
  0
LINE
  8
default
  6
CONTINUOUS
 10
7.133428
 20
6.452939
 11
7.476287
 21
5.511424
 39
0
 62
0
  0
LINE
  8
default
  6
CONTINUOUS
 10
9.258428
 20
7.077939
 11
9.402437
 21
6.077939
 39
0
 62
0
  0
LINE
  8
default
  6
CONTINUOUS
 10
16.008428
 20
7.077939
 11
15.864419
 21
6.077939
 39
0
 62
0
  0
LINE
  8
default
  6
CONTINUOUS
 10
18.133428
 20
6.452939
 11
17.790569
 21
5.511424
 39
0
 62
0
  0
LINE
  8
default
  6
DOT
 10
7.133428
 20
12.077939
 11
7.133428
 21
6.452939
 39
0
 62
0
  0
LINE
  8
default
  6
DOT
 10
18.133428
 20
12.077939
 11
18.133428
 21
6.452939
 39
0
 62
0
  0
LINE
  8
default
  6
DOT
 10
5.133428
 20
11.577939
 11
20.133428
 21
11.577939
 39
0
 62
0
  0
LINE
  8
default
  6
DOT
 10
7.304858
 20
5.982182
 11
5.333837
 21
5.119860
 39
0
 62
0
  0
LINE
  8
default
  6
DOT
 10
9.330433
 20
6.577939
 11
7.304858
 21
5.982182
 39
0
 62
0
  0
LINE
  8
default
  6
DOT
 10
9.330433
 20
6.577939
 11
15.936423
 21
6.577939
 39
0
 62
0
  0
LINE
  8
default
  6
DOT
 10
15.936423
 20
6.577939
 11
17.961998
 21
5.982182
 39
0
 62
0
  0
LINE
  8
default
  6
DOT
 10
17.961998
 20
5.982182
 11
19.933019
 21
5.119860
 39
0
 62
0
  0
LINE
  8
default
  6
DOT
 10
16.008428
 20
7.077939
 11
18.133428
 21
6.452939
 39
0
 62
0
  0
LINE
  8
default
  6
DOT
 10
18.133428
 20
6.452939
 11
20.133428
 21
5.577939
 39
0
 62
0
  0
LINE
  8
default
  6
DOT
 10
9.258428
 20
7.077939
 11
7.133428
 21
6.452939
 39
0
 62
0
  0
LINE
  8
default
  6
DOT
 10
7.133428
 20
6.452939
 11
5.133428
 21
5.577939
 39
0
 62
0
  0
LINE
  8
default
  6
DOT
 10
9.258428
 20
7.077939
 11
16.008428
 21
7.077939
 39
0
 62
0
  0
LINE
  8
default
  6
DOT
 10
5.133428
 20
11.077939
 11
20.133428
 21
11.077939
 39
0
 62
0
  0
CIRCLE
  8
default
  6
CONTINUOUS
 10
12.638825
 20
33.938268
 40
0.250000
 39
0
 62
0
  0
LINE
  8
default
  6
CONTINUOUS
 10
8.633428
 20
39.000224
 11
16.633428
 21
39.000224
 39
0
 62
0
  0
LINE
  8
default
  6
CONTINUOUS
 10
17.133428
 20
38.500224
 11
17.133428
 21
36.500224
 39
0
 62
0
  0
LINE
  8
default
  6
CONTINUOUS
 10
8.133428
 20
36.500224
 11
8.633428
 21
36.500224
 39
0
 62
0
  0
LINE
  8
default
  6
CONTINUOUS
 10
8.133428
 20
38.500224
 11
8.133428
 21
36.500224
 39
0
 62
0
  0
LINE
  8
default
  6
CONTINUOUS
 10
16.633428
 20
36.500224
 11
17.133428
 21
36.500224
 39
0
 62
0
  0
LINE
  8
default
  6
CONTINUOUS
 10
8.633428
 20
36.500224
 11
8.279874
 21
36.146671
 39
0
 62
0
  0
LINE
  8
default
  6
CONTINUOUS
 10
8.279874
 20
36.146671
 11
11.572767
 21
32.853777
 39
0
 62
0
  0
LINE
  8
default
  6
CONTINUOUS
 10
16.633428
 20
36.500224
 11
16.986981
 21
36.146671
 39
0
 62
0
  0
LINE
  8
default
  6
CONTINUOUS
 10
12.777842
 20
32.433143
 11
12.633428
 21
32.914438
 39
0
 62
0
  0
LINE
  8
default
  6
CONTINUOUS
 10
12.777842
 20
32.433143
 11
13.054009
 21
32.486782
 39
0
 62
0
  0
LINE
  8
default
  6
CONTINUOUS
 10
13.007760
 20
32.987143
 11
13.054009
 21
32.486782
 39
0
 62
0
  0
LINE
  8
default
  6
CONTINUOUS
 10
13.325365
 20
32.597750
 11
13.007760
 21
32.987143
 39
0
 62
0
  0
LINE
  8
default
  6
CONTINUOUS
 10
13.325365
 20
32.597750
 11
13.574743
 21
32.762756
 39
0
 62
0
  0
LINE
  8
default
  6
CONTINUOUS
 10
13.340534
 20
33.207331
 11
13.574743
 21
32.762756
 39
0
 62
0
  0
LINE
  8
default
  6
CONTINUOUS
 10
13.340534
 20
33.207331
 11
13.686875
 21
32.846564
 39
0
 62
0
  0
LINE
  8
default
  6
CONTINUOUS
 10
13.686875
 20
32.846564
 11
16.986981
 21
36.146671
 39
0
 62
0
  0
LINE
  8
default
  6
CONTINUOUS
 10
12.489013
 20
32.433143
 11
12.633428
 21
32.914438
 39
0
 62
0
  0
LINE
  8
default
  6
CONTINUOUS
 10
12.489013
 20
32.433143
 11
12.212847
 21
32.486782
 39
0
 62
0
  0
LINE
  8
default
  6
CONTINUOUS
 10
12.259096
 20
32.987143
 11
12.212847
 21
32.486782
 39
0
 62
0
  0
LINE
  8
default
  6
CONTINUOUS
 10
11.941491
 20
32.597750
 11
12.259096
 21
32.987143
 39
0
 62
0
  0
LINE
  8
default
  6
CONTINUOUS
 10
11.941491
 20
32.597750
 11
11.692113
 21
32.762756
 39
0
 62
0
  0
LINE
  8
default
  6
CONTINUOUS
 10
11.926321
 20
33.207331
 11
11.692113
 21
32.762756
 39
0
 62
0
  0
LINE
  8
default
  6
CONTINUOUS
 10
11.926321
 20
33.207331
 11
11.572767
 21
32.853777
 39
0
 62
0
  0
LINE
  8
default
  6
CONTINUOUS
 10
8.133428
 20
38.500224
 11
8.633428
 21
38.500224
 39
0
 62
0
  0
LINE
  8
default
  6
CONTINUOUS
 10
8.633428
 20
39.000224
 11
8.633428
 21
38.500224
 39
0
 62
0
  0
LINE
  8
default
  6
CONTINUOUS
 10
16.633428
 20
38.500224
 11
17.133428
 21
38.500224
 39
0
 62
0
  0
LINE
  8
default
  6
CONTINUOUS
 10
16.633428
 20
39.000224
 11
16.633428
 21
38.500224
 39
0
 62
0
  0
CIRCLE
  8
default
  6
DOT
 10
12.638825
 20
33.938268
 40
1.000000
 39
0
 62
0
  0
LINE
  8
default
  6
DOT
 10
8.633428
 20
36.500224
 11
11.926321
 21
33.207331
 39
0
 62
0
  0
LINE
  8
default
  6
DOT
 10
13.340534
 20
33.207331
 11
16.633428
 21
36.500224
 39
0
 62
0
  0
LINE
  8
default
  6
DOT
 10
8.633428
 20
38.500224
 11
8.633428
 21
36.500224
 39
0
 62
0
  0
LINE
  8
default
  6
DOT
 10
8.633428
 20
38.500224
 11
16.633428
 21
38.500224
 39
0
 62
0
  0
LINE
  8
default
  6
DOT
 10
16.633428
 20
38.500224
 11
16.633428
 21
36.500224
 39
0
 62
0
  0
ARC
  8
default
  6
DOT
 10
12.633428
 20
33.914438
 40
1.000000
 50
225.000000
 51
315.000000
 39
0
 62
0
  0
TEXT
  8
default
  6
CONTINUOUS
 10
2.454139
 20
40.968640
 40
1.000000
 50
0.000000
 72
0
  7
Normal#0.100000#0.600000
  1
Back Wall
 39
0
 62
0
  0
LINE
  8
default
  6
DOT
 10
22.454989
 20
38.500224
 11
22.454989
 21
36.500224
 39
0
 62
0
  0
LINE
  8
default
  6
DOT
 10
22.454989
 20
38.500224
 11
30.454989
 21
38.500224
 39
0
 62
0
  0
LINE
  8
default
  6
DOT
 10
30.454989
 20
38.500224
 11
30.454989
 21
36.500224
 39
0
 62
0
  0
ARC
  8
default
  6
DOT
 10
26.454989
 20
33.914438
 40
1.000000
 50
225.000000
 51
315.000000
 39
0
 62
0
  0
LINE
  8
default
  6
DOT
 10
22.454989
 20
36.500224
 11
26.454988
 21
32.500225
 39
0
 62
0
  0
LINE
  8
default
  6
DOT
 10
26.454988
 20
32.500225
 11
30.454989
 21
36.500224
 39
0
 62
0
  0
LINE
  8
default
  6
DOT
 10
8.633428
 20
25.038985
 11
16.633428
 21
25.038985
 39
0
 62
0
  0
LINE
  8
default
  6
CONTINUOUS
 10
8.633428
 20
25.538985
 11
16.633428
 21
25.538985
 39
0
 62
0
  0
LINE
  8
default
  6
CONTINUOUS
 10
8.633428
 20
25.538985
 11
8.633428
 21
25.038985
 39
0
 62
0
  0
LINE
  8
default
  6
CONTINUOUS
 10
8.633428
 20
25.038985
 11
8.133428
 21
25.038985
 39
0
 62
0
  0
LINE
  8
default
  6
CONTINUOUS
 10
16.633428
 20
25.538985
 11
16.633428
 21
25.038985
 39
0
 62
0
  0
LINE
  8
default
  6
CONTINUOUS
 10
16.633428
 20
25.038985
 11
17.133428
 21
25.038985
 39
0
 62
0
  0
TEXT
  8
default
  6
CONTINUOUS
 10
1.957610
 20
28.740220
 40
1.000000
 50
0.000000
 72
0
  7
Normal#0.100000#0.600000
  1
Front Wall
 39
0
 62
0
  0
LINE
  8
default
  6
CONTINUOUS
 10
8.633428
 20
22.663985
 11
8.133428
 21
22.663985
 39
0
 62
0
  0
LINE
  8
default
  6
CONTINUOUS
 10
8.266026
 20
22.324845
 11
8.633428
 21
22.663985
 39
0
 62
0
  0
LINE
  8
default
  6
CONTINUOUS
 10
17.000830
 20
22.324845
 11
16.633428
 21
22.663985
 39
0
 62
0
  0
LINE
  8
default
  6
CONTINUOUS
 10
17.133428
 20
22.663985
 11
16.633428
 21
22.663985
 39
0
 62
0
  0
CIRCLE
  8
default
  6
CONTINUOUS
 10
12.638825
 20
20.102028
 40
0.250000
 39
0
 62
0
  0
POINT
  8
default
  6
DOT
 10
10.133427
 20
21.163985
 39
0
 62
0
  0
POINT
  8
default
  6
DOT
 10
15.133428
 20
21.163985
 39
0
 62
0
  0
LINE
  8
default
  6
CONTINUOUS
 10
12.777842
 20
18.573058
 11
12.633428
 21
19.054353
 39
0
 62
0
  0
LINE
  8
default
  6
CONTINUOUS
 10
12.777842
 20
18.573058
 11
13.054009
 21
18.626697
 39
0
 62
0
  0
LINE
  8
default
  6
CONTINUOUS
 10
13.007760
 20
19.127058
 11
13.054009
 21
18.626697
 39
0
 62
0
  0
LINE
  8
default
  6
CONTINUOUS
 10
13.325365
 20
18.737665
 11
13.007760
 21
19.127058
 39
0
 62
0
  0
LINE
  8
default
  6
CONTINUOUS
 10
13.325365
 20
18.737665
 11
13.574743
 21
18.902671
 39
0
 62
0
  0
LINE
  8
default
  6
CONTINUOUS
 10
13.340534
 20
19.347246
 11
13.574743
 21
18.902671
 39
0
 62
0
  0
LINE
  8
default
  6
CONTINUOUS
 10
13.340534
 20
19.347246
 11
13.686875
 21
18.986479
 39
0
 62
0
  0
LINE
  8
default
  6
CONTINUOUS
 10
12.489013
 20
18.573058
 11
12.633428
 21
19.054353
 39
0
 62
0
  0
LINE
  8
default
  6
CONTINUOUS
 10
12.489013
 20
18.573058
 11
12.212847
 21
18.626697
 39
0
 62
0
  0
LINE
  8
default
  6
CONTINUOUS
 10
12.259096
 20
19.127058
 11
12.212847
 21
18.626697
 39
0
 62
0
  0
LINE
  8
default
  6
CONTINUOUS
 10
11.941491
 20
18.737665
 11
12.259096
 21
19.127058
 39
0
 62
0
  0
LINE
  8
default
  6
CONTINUOUS
 10
11.941491
 20
18.737665
 11
11.692113
 21
18.902671
 39
0
 62
0
  0
LINE
  8
default
  6
CONTINUOUS
 10
11.926321
 20
19.347246
 11
11.692113
 21
18.902671
 39
0
 62
0
  0
LINE
  8
default
  6
CONTINUOUS
 10
11.926321
 20
19.347246
 11
11.572767
 21
18.993692
 39
0
 62
0
  0
ARC
  8
default
  6
DOT
 10
12.633428
 20
20.054353
 40
1.000000
 50
225.000000
 51
315.000000
 39
0
 62
0
  0
LINE
  8
default
  6
DOT
 10
10.133427
 20
21.163985
 11
11.938243
 21
19.359169
 39
0
 62
0
  0
LINE
  8
default
  6
DOT
 10
13.328855
 20
19.359412
 11
15.133428
 21
21.163985
 39
0
 62
0
  0
LINE
  8
default
  6
CONTINUOUS
 10
9.772806
 20
20.817499
 11
11.584690
 21
19.005615
 39
0
 62
0
  0
LINE
  8
default
  6
CONTINUOUS
 10
13.675195
 20
18.998646
 11
15.494050
 21
20.817499
 39
0
 62
0
  0
LINE
  8
default
  6
CONTINUOUS
 10
10.133427
 20
21.163985
 11
9.772806
 21
20.817499
 39
0
 62
0
  0
LINE
  8
default
  6
CONTINUOUS
 10
15.133428
 20
21.163985
 11
15.494050
 21
20.817499
 39
0
 62
0
  0
LINE
  8
default
  6
DOT
 10
10.133427
 20
21.163985
 11
15.133428
 21
21.163985
 39
0
 62
0
  0
LINE
  8
default
  6
DOT
 10
8.633428
 20
25.038985
 11
8.633428
 21
22.663985
 39
0
 62
0
  0
LINE
  8
default
  6
CONTINUOUS
 10
8.133428
 20
25.038985
 11
8.133428
 21
22.663985
 39
0
 62
0
  0
LINE
  8
default
  6
DOT
 10
16.633428
 20
25.038985
 11
16.633428
 21
22.663985
 39
0
 62
0
  0
LINE
  8
default
  6
CONTINUOUS
 10
17.133428
 20
25.038985
 11
17.133428
 21
22.663985
 39
0
 62
0
  0
LINE
  8
default
  6
DOT
 10
8.633428
 20
22.663985
 11
10.133427
 21
21.163985
 39
0
 62
0
  0
LINE
  8
default
  6
DOT
 10
16.633428
 20
22.663985
 11
15.133428
 21
21.163985
 39
0
 62
0
  0
LINE
  8
default
  6
CONTINUOUS
 10
16.986981
 20
22.310431
 11
15.486981
 21
20.810431
 39
0
 62
0
  0
LINE
  8
default
  6
CONTINUOUS
 10
8.279874
 20
22.310431
 11
9.779873
 21
20.810431
 39
0
 62
0
  0
LINE
  8
default
  6
CONTINUOUS
 10
27.221219
 20
18.068113
 11
32.221219
 21
18.068113
 39
0
 62
0
  0
LINE
  8
default
  6
CONTINUOUS
 10
26.471219
 20
24.068113
 11
27.721219
 21
20.568113
 39
0
 62
0
  0
LINE
  8
default
  6
CONTINUOUS
 10
26.377045
 20
24.034479
 11
26.545213
 21
23.563608
 39
0
 62
0
  0
ARC
  8
default
  6
CONTINUOUS
 10
26.424132
 20
24.051296
 40
0.050000
 50
19.653824
 51
199.653824
 39
0
 62
0
  0
LINE
  8
default
  6
CONTINUOUS
 10
31.821219
 20
24.068113
 11
31.821219
 21
23.568113
 39
0
 62
0
  0
ARC
  8
default
  6
CONTINUOUS
 10
31.771219
 20
24.068113
 40
0.050000
 50
0.000000
 51
180.000000
 39
0
 62
0
  0
ARC
  8
default
  6
CONTINUOUS
 10
31.821219
 20
18.268113
 40
0.100000
 50
180.000000
 51
270.000000
 39
0
 62
0
  0
ARC
  8
default
  6
CONTINUOUS
 10
32.221219
 20
18.168113
 40
0.100000
 50
270.000000
 51
90.000000
 39
0
 62
0
  0
LINE
  8
default
  6
CONTINUOUS
 10
31.721219
 20
24.068113
 11
31.721219
 21
18.268113
 39
0
 62
0
  0
LINE
  8
default
  6
CONTINUOUS
 10
31.821219
 20
18.168113
 11
32.221219
 21
18.168113
 39
0
 62
0
  0
LINE
  8
default
  6
CONTINUOUS
 10
31.821219
 20
18.268113
 11
32.221219
 21
18.268113
 39
0
 62
0
  0
ARC
  8
default
  6
CONTINUOUS
 10
27.621219
 20
18.268113
 40
0.100000
 50
270.000000
 51
0.000000
 39
0
 62
0
  0
ARC
  8
default
  6
CONTINUOUS
 10
27.221219
 20
18.168113
 40
0.100000
 50
90.000000
 51
270.000000
 39
0
 62
0
  0
LINE
  8
default
  6
CONTINUOUS
 10
27.621219
 20
18.168113
 11
27.221219
 21
18.168113
 39
0
 62
0
  0
LINE
  8
default
  6
CONTINUOUS
 10
27.621219
 20
18.268113
 11
27.221219
 21
18.268113
 39
0
 62
0
  0
LINE
  8
default
  6
CONTINUOUS
 10
27.721219
 20
20.568113
 11
27.721219
 21
18.268113
 39
0
 62
0
  0
TEXT
  8
default
  6
CONTINUOUS
 10
27.894642
 20
26.437222
 40
1.000000
 50
0.000000
 72
0
  7
Normal#0.100000#0.600000
  1
Folds
 39
0
 62
0
  0
DIMENSION
  8
labels
  6
CONTINUOUS
  1
7 1/2" (dj);;
 10
12.633428
 20
15.313523
 13
12.633428
 23
12.077939
 14
20.133428
 24
12.077939
 50
0.000000
 70
0
 39
0
 62
0
  0
DIMENSION
  8
labels
  6
CONTINUOUS
  1
3 3/8" (da);;
 10
12.633428
 20
12.597770
 13
12.633428
 23
12.077939
 14
16.008428
 24
12.077939
 50
0.000000
 70
0
 39
0
 62
0
  0
DIMENSION
  8
labels
  6
CONTINUOUS
  1
5 1/2" (di);;
 10
12.633428
 20
13.542380
 13
12.633428
 23
12.077939
 14
18.133428
 24
12.077939
 50
0.000000
 70
0
 39
0
 62
0
  0
DIMENSION
  8
labels
  6
CONTINUOUS
  1
4" (de);;
 10
22.253564
 20
11.077939
 13
20.633428
 23
11.077939
 14
20.633428
 24
7.077939
 50
90.000000
 70
0
 39
0
 62
0
  0
DIMENSION
  8
labels
  6
CONTINUOUS
  1
4 5/8" (dk);;
 10
23.198173
 20
6.452939
 13
20.633428
 23
6.452939
 14
20.633428
 24
11.077939
 50
90.000000
 70
0
 39
0
 62
0
  0
DIMENSION
  8
labels
  6
CONTINUOUS
  1
5 1/2" (df);;
 10
25.205469
 20
5.577939
 13
20.633428
 23
5.577939
 14
20.633428
 24
11.077939
 50
90.000000
 70
0
 39
0
 62
0
  0
TEXT
  8
labels
  6
CONTINUOUS
 10
2.032217
 20
15.494824
 40
1.000000
 50
0.000000
 72
0
  7
Normal#0.100000#0.600000
  1
Sides and Bottom
 39
0
 62
0
  0
TEXT
  8
labels
  6
CONTINUOUS
 10
1.968991
 20
8.608226
 40
0.700000
 50
0.000000
 72
0
  7
Normal#0.070000#0.420000
  1
FoldA
 39
0
 62
0
  0
TEXT
  8
labels
  6
CONTINUOUS
 10
2.214344
 20
12.452092
 40
0.700000
 50
0.000000
 72
0
  7
Normal#0.070000#0.420000
  1
FoldC
 39
0
 62
0
  0
TEXT
  8
labels
  6
CONTINUOUS
 10
2.459697
 20
3.701163
 40
0.700000
 50
0.000000
 72
0
  7
Normal#0.070000#0.420000
  1
FoldC
 39
0
 62
0
  0
TEXT
  8
labels
  6
CONTINUOUS
 10
11.885017
 20
2.370115
 40
0.700000
 50
0.000000
 72
0
  7
Normal#0.070000#0.420000
  1
Center
 39
0
 62
0
  0
TEXT
  8
labels
  6
CONTINUOUS
 10
11.885017
 20
1.390115
 40
0.700000
 50
0.000000
 72
0
  7
Normal#0.070000#0.420000
  1
Line
 39
0
 62
0
  0
TEXT
  8
labels
  6
CONTINUOUS
 10
3.604679
 20
38.950234
 40
0.700000
 50
0.000000
 72
0
  7
Normal#0.070000#0.420000
  1
FoldA
 39
0
 62
0
  0
TEXT
  8
labels
  6
CONTINUOUS
 10
3.604679
 20
34.288523
 40
0.700000
 50
0.000000
 72
0
  7
Normal#0.070000#0.420000
  1
FoldB
 39
0
 62
0
  0
DIMENSION
  8
labels
  6
CONTINUOUS
  1
;;
 13
28.565211
 23
34.610447
 14
28.575222
 24
34.620458
 10
24.399510
 20
34.555703
 15
24.334755
 25
34.620458
 16
28.575222
 26
34.620458
 70
2
 39
0
 62
0
  0
DIMENSION
  8
labels
  6
CONTINUOUS
  1
2 1/2" (dc);;
 10
12.633428
 20
26.239577
 13
12.633428
 23
25.538985
 14
15.133428
 24
25.538985
 50
0.000000
 70
0
 39
0
 62
0
  0
DIMENSION
  8
labels
  6
CONTINUOUS
  1
4" (db);;
 10
12.633428
 20
27.220989
 13
12.633428
 23
25.538985
 14
16.633428
 24
25.538985
 50
0.000000
 70
0
 39
0
 62
0
  0
DIMENSION
  8
labels
  6
CONTINUOUS
  1
2 3/8" (dl);;
 10
18.392583
 20
25.038985
 13
17.133428
 23
25.038985
 14
17.133428
 24
22.663985
 50
90.000000
 70
0
 39
0
 62
0
  0
DIMENSION
  8
labels
  6
CONTINUOUS
  1
3 7/8" (dn);;
 10
20.565032
 20
25.038985
 13
17.133428
 23
25.038985
 14
15.840535
 24
21.163985
 50
90.000000
 70
0
 39
0
 62
0
  0
DIMENSION
  8
labels
  6
CONTINUOUS
  1
6 3/8" (dm);;
 10
22.888346
 20
25.038985
 13
17.133428
 23
25.038985
 14
12.633427
 24
18.663984
 50
90.000000
 70
0
 39
0
 62
0
  0
DIMENSION
  8
labels
  6
CONTINUOUS
  1
4" (db);;
 10
12.633428
 20
39.686293
 13
12.633428
 23
39.000224
 14
16.633428
 24
39.000224
 50
0.000000
 70
0
 39
0
 62
0
  0
DIMENSION
  8
labels
  6
CONTINUOUS
  1
2" (hl);;
 10
18.898359
 20
38.500224
 13
17.133428
 23
38.500224
 14
17.133428
 24
36.500224
 50
90.000000
 70
0
 39
0
 62
0
  0
DIMENSION
  8
labels
  6
CONTINUOUS
  1
6" (ht);;
 10
20.942969
 20
38.500224
 13
17.133428
 23
38.500224
 14
12.633427
 24
32.500224
 50
90.000000
 70
0
 39
0
 62
0
  0
LINE
  8
labels
  6
CONTINUOUS
 10
17.133428
 20
32.500225
 11
26.454988
 21
32.500225
 39
0
 62
0
  0
TEXT
  8
labels
  6
CONTINUOUS
 10
3.441110
 20
19.403765
 40
0.500000
 50
0.000000
 72
0
  7
Normal#0.050000#0.300000
  1
5/8" hole
 39
0
 62
0
  0
TEXT
  8
labels
  6
CONTINUOUS
 10
3.441110
 20
18.703765
 40
0.500000
 50
0.000000
 72
0
  7
Normal#0.050000#0.300000
  1
(depends on
 39
0
 62
0
  0
TEXT
  8
labels
  6
CONTINUOUS
 10
3.441110
 20
18.003765
 40
0.500000
 50
0.000000
 72
0
  7
Normal#0.050000#0.300000
  1
type of mortar)
 39
0
 62
0
  0
DIMENSION
  8
labels
  6
CONTINUOUS
  1
;;
 10
6.710441
 20
19.152278
 13
6.710441
 23
19.152278
 14
12.195106
 24
20.012036
 70
7
 39
0
 62
0
  0
TEXT
  8
labels
  6
CONTINUOUS
 10
3.522894
 20
21.496083
 40
0.700000
 50
0.000000
 72
0
  7
Normal#0.070000#0.420000
  1
FoldB
 39
0
 62
0
  0
TEXT
  8
labels
  6
CONTINUOUS
 10
3.359325
 20
25.339949
 40
0.700000
 50
0.000000
 72
0
  7
Normal#0.070000#0.420000
  1
FoldA
 39
0
 62
0
  0
DIMENSION
  8
labels
  6
CONTINUOUS
  1
;;
 10
5.976426
 20
39.277371
 13
5.976426
 23
39.277371
 14
8.348173
 24
38.950233
 70
7
 39
0
 62
0
  0
DIMENSION
  8
labels
  6
CONTINUOUS
  1
;;
 10
5.649288
 20
34.942798
 13
5.649288
 23
34.942798
 14
7.693898
 24
36.987408
 70
7
 39
0
 62
0
  0
DIMENSION
  8
labels
  6
CONTINUOUS
  1
;;
 10
5.485720
 20
25.701163
 13
5.485720
 23
25.701163
 14
8.102820
 24
25.537594
 70
7
 39
0
 62
0
  0
DIMENSION
  8
labels
  6
CONTINUOUS
  1
;;
 10
5.240367
 20
22.020865
 13
5.240367
 23
22.020865
 14
7.612114
 24
23.738337
 70
7
 39
0
 62
0
  0
DIMENSION
  8
labels
  6
CONTINUOUS
  1
;;
 10
5.649288
 20
21.775512
 13
5.649288
 23
21.775512
 14
8.184604
 24
21.448375
 70
7
 39
0
 62
0
  0
DIMENSION
  8
labels
  6
CONTINUOUS
  1
;;
 10
5.731073
 20
21.366590
 13
5.731073
 23
21.366590
 14
9.902077
 24
20.139824
 70
7
 39
0
 62
0
  0
DIMENSION
  8
labels
  6
CONTINUOUS
  1
;;
 10
4.177170
 20
12.697445
 13
4.177170
 23
12.697445
 14
4.913229
 24
12.206739
 70
7
 39
0
 62
0
  0
DIMENSION
  8
labels
  6
CONTINUOUS
  1
;;
 10
5.812857
 20
34.288523
 13
5.812857
 23
34.288523
 14
9.166017
 24
34.615661
 70
7
 39
0
 62
0
  0
TEXT
  8
labels
  6
CONTINUOUS
 10
24.050775
 20
18.176999
 40
0.700000
 50
0.000000
 72
0
  7
Normal#0.070000#0.420000
  1
FoldC
 39
0
 62
0
  0
TEXT
  8
labels
  6
CONTINUOUS
 10
29.383435
 20
23.820122
 40
0.700000
 50
0.000000
 72
0
  7
Normal#0.070000#0.420000
  1
FoldA
 39
0
 62
0
  0
TEXT
  8
labels
  6
CONTINUOUS
 10
29.765360
 20
19.567334
 40
0.700000
 50
0.000000
 72
0
  7
Normal#0.070000#0.420000
  1
FoldB
 39
0
 62
0
  0
DIMENSION
  8
labels
  6
CONTINUOUS
  1
;;
 10
28.887171
 20
23.859029
 13
28.887171
 23
23.859029
 14
27.024392
 24
23.670051
 70
7
 39
0
 62
0
  0
DIMENSION
  8
labels
  6
CONTINUOUS
  1
;;
 10
29.589087
 20
19.782514
 13
29.589087
 23
19.782514
 14
28.023273
 24
18.675646
 70
7
 39
0
 62
0
  0
DIMENSION
  8
labels
  6
CONTINUOUS
  1
;;
 10
25.890527
 20
18.567659
 13
25.890527
 23
18.567659
 14
26.916405
 24
18.243697
 70
7
 39
0
 62
0
  0
TEXT
  8
labels
  6
CONTINUOUS
 10
25.113973
 20
21.203021
 40
0.500000
 50
0.000000
 72
0
  7
Normal#0.050000#0.300000
  1
Front
 39
0
 62
0
  0
TEXT
  8
labels
  6
CONTINUOUS
 10
31.983861
 20
21.039453
 40
0.500000
 50
0.000000
 72
0
  7
Normal#0.050000#0.300000
  1
Back
 39
0
 62
0
  0
DIMENSION
  8
labels
  6
CONTINUOUS
  1
;;
 10
3.795244
 20
8.936951
 13
3.795244
 23
8.936951
 14
4.499940
 24
8.936951
 70
7
 39
0
 62
0
  0
DIMENSION
  8
labels
  6
CONTINUOUS
  1
;;
 10
4.471752
 20
4.201397
 13
4.471752
 23
4.201397
 14
5.148260
 24
4.934281
 70
7
 39
0
 62
0
  0
TEXT
  8
default
  6
CONTINUOUS
 10
9.983861
 20
42.385178
 40
1.500000
 50
0.000000
 72
0
  7
Normal#0.150000#0.900000
  1
Stucco Sprayer Hopper Plans
 39
0
 62
0
  0
LINE
  8
labels
  6
DASH
 10
12.633428
 20
41.812687
 11
12.633428
 21
3.537594
 39
0
 62
0
  0
TEXT
  8
labels
  6
CONTINUOUS
 10
23.200381
 20
16.388661
 40
0.500000
 50
0.000000
 72
0
  7
Normal#0.050000#0.300000
  1
FoldA - 180 degees to make non-sharp edge
 39
0
 62
0
  0
TEXT
  8
labels
  6
CONTINUOUS
 10
23.200381
 20
15.688661
 40
0.500000
 50
0.000000
 72
0
  7
Normal#0.050000#0.300000
  1
FoldB - 90 degrees to make connection
 39
0
 62
0
  0
TEXT
  8
labels
  6
CONTINUOUS
 10
23.200381
 20
14.988661
 40
0.500000
 50
0.000000
 72
0
  7
Normal#0.050000#0.300000
  1
FoldC - 180 degees to make connection
 39
0
 62
0
  0
TEXT
  8
labels
  6
CONTINUOUS
 10
23.200381
 20
14.288661
 40
0.500000
 50
0.000000
 72
0
  7
Normal#0.050000#0.300000
  1
(all folds are 1/2")
 39
0
 62
0
  0
ENDSEC
  0
EOF
